[更早] [欧美] [爱情] [x265-4K-HDR] 处女之死 The.Virgin.Suicides.1999.2160p.UHD.BluRay.x265.10bit.HDR.DTS-HD.MA.5.1-RARBG 8.25 GB

uump4 2月前

悠悠MP4_MP4电影下载_处女之死 The.Virgin.Suicides.1999.2160p.UHD.BluRay.x265.10bit.HDR.DTS-HD.MA.5.1-RARBG 8.25 GB

◎片  名 处女之死 The Virgin Suicides / 锁不住的青春(港) / 折翼天使 / 死亡日记 / 处女自杀 / 女生向前走 / 少女的美丽与哀愁
◎年  代 1999
◎产  地 美国
◎类  别 剧情 / 爱情 / 悬疑
◎语  言 英语
◎上映日期 1999-05-19(戛纳电影节)
◎IMDb评分  7.2/10 from 155431 users
◎IMDb链接  https://www.imdb.com/title/tt0159097/
◎豆瓣评分 7.5/10 from 19555 users
◎豆瓣链接 https://movie.douban.com/subject/1297894/
◎片  长 97 分钟 / 90 分钟(德国电视版)
◎导  演 索菲亚·科波拉 Sofia Coppola
◎编  剧 索菲亚·科波拉 Sofia Coppola
       杰弗里·尤金尼德斯 Jeffrey Eugenides
◎主  演 克斯汀·邓斯特 Kirsten Dunst
       凯瑟琳·特纳 Kathleen Turner
       乔什·哈奈特 Josh Hartnett
       詹姆斯·伍兹 James Woods
       海登·克里斯滕森 Hayden Christensen
       A·J·库克 A.J. Cook
       汉娜·豪尔 Hanna Hall
       Chelse Swain Chelse Swain
       Leah Straatsma Leah Straatsma
       道恩·格林哈尔 Dawn Greenhalgh
       丹尼·德维托 Danny DeVito
       约翰·布钱 John Buchan
       Kristin Fairlie Kristin Fairlie
       罗伯塔·汉利 Roberta Hanley
       Mandy Lee Jones Mandy Lee Jones
       梅洛迪·约翰逊 Melody Johnson
       斯科特·格伦 Scott Glenn
       罗伯特·舒瓦兹曼 Robert Schwartzman
       乔纳森·塔克 Jonathan Tucker
       迈克尔·帕尔 Michael Paré
       苏吉·凯塞尔 Suki Kaiser
       吉奥瓦尼·瑞比西 Giovanni Ribisi
       Chris Hale Chris Hale
       蒂摩西·亚当斯 Timothy Adams
       阿莫斯·克劳利 Amos Crawley
       州·迪尼寇 Joe Dinicol

◎简  介

  一把冷冷的男声带来了故事的开始。青春期对里斯本一家的5个豆蔻女儿们来说,是一道迈不过的槛。首先自杀的是最小的女儿赛西利娅(汉娜霍尔 Hanna R. Hall 饰)。她变得脆弱低落,想结束生命,这一切都没有道得明的原因。父母以为,让她去和男孩交往,会改善情况。然而,赛西利娅还是选择了告别人生。                                    
      和男孩交往频繁,性情放纵的,是另一个女儿勒克斯(克尔斯滕·邓斯特 Kirsten Dunst 饰)。勒克斯认识花花公子特里普,被和他发生了关系,却最终被特里普抛弃。里斯本父母害怕再次失去女儿,于是失去了理性。他们把四个女儿困在家中,给她们最严密的保护。然而自杀的惨剧就像疫情一样,迅速的扩散。



Video
ID           : 1
Format       : HEVC
Format/Info      : High Efficiency Video Coding
Format profile       : Main [email protected]@Main
HDR format       : SMPTE ST 2086, HDR10 compatible
Codec ID         : V_MPEGH/ISO/HEVC
Duration         : 1 h 36 min
Bit rate         : 8 021 kb/s
Width        : 3 582 pixels
Height       : 2 160 pixels
Display aspect ratio     : 5:3
Frame rate mode      : Constant
Frame rate       : 23.976 (24000/1001) FPS
Color space      : YUV
Chroma subsampling       : 4:2:0
Bit depth        : 10 bits
Bits/(Pixel*Frame)       : 0.043
Stream size      : 5.43 GiB (66%)
Writing library      : x265 3.5+rarbg-HDR-38-20255e6:[Linux][clang 16.0.0][64 bit] 10bit
Encoding settings        : cpuid=1111039 / frame-threads=6 / wpp / no-pmode / no-pme / no-psnr / no-ssim / log-level=2 / input-csp=1 / input-res=3582x2160 / interlace=0 / total-frames=0 / level-idc=51 / high-tier=1 / uhd-bd=0 / ref=4 / no-allow-non-conformance / repeat-headers / annexb / aud / no-eob / no-eos / no-hrd / info / hash=0 / no-temporal-layers / no-open-gop / min-keyint=1 / keyint=24 / gop-lookahead=0 / bframes=4 / b-adapt=2 / b-pyramid / bframe-bias=0 / rc-lookahead=25 / lookahead-slices=4 / scenecut=40 / no-hist-scenecut / radl=0 / no-splice / no-intra-refresh / ctu=64 / min-cu-size=8 / rect / no-amp / max-tu-size=32 / tu-inter-depth=1 / tu-intra-depth=1 / limit-tu=0 / rdoq-level=2 / dynamic-rd=0.00 / no-ssim-rd / signhide / no-tskip / nr-intra=0 / nr-inter=0 / no-constrained-intra / strong-intra-smoothing / max-merge=3 / limit-refs=3 / no-limit-modes / me=3 / subme=3 / merange=57 / temporal-mvp / no-frame-dup / no-hme / weightp / no-weightb / no-analyze-src-pics / deblock=0:0 / no-sao / no-sao-non-deblock / rd=4 / selective-sao=0 / no-early-skip / rskip / no-fast-intra / no-tskip-fast / no-cu-lossless / no-b-intra / no-splitrd-skip / rdpenalty=0 / psy-rd=2.00 / psy-rdoq=1.00 / no-rd-refine / no-lossless / cbqpoffs=0 / crqpoffs=0 / rc=abr / bitrate=8000 / qcomp=0.60 / qpstep=4 / stats-write=0 / stats-read=2 / cplxblur=20.0 / qblur=0.5 / ipratio=1.40 / pbratio=1.30 / aq-mode=1 / aq-strength=1.00 / cutree / zone-count=0 / no-strict-cbr / qg-size=32 / no-rc-grain / qpmax=69 / qpmin=0 / no-const-vbv / sar=1 / overscan=0 / videoformat=5 / range=0 / colorprim=9 / transfer=16 / colormatrix=9 / chromaloc=0 / display-window=0 / master-display=G(8500,39850)B(6550,2300)R(35400,14600)WP(15635,16450)L(10000000,1) / cll=106,68 / min-luma=0 / max-luma=1023 / log2-max-poc-lsb=8 / vui-timing-info / vui-hrd-info / slices=1 / no-opt-qp-pps / no-opt-ref-list-length-pps / no-multi-pass-opt-rps / scenecut-bias=0.05 / hist-threshold=0.03 / no-opt-cu-delta-qp / no-aq-motion / hdr10 / hdr10-opt / no-dhdr10-opt / no-idr-recovery-sei / analysis-reuse-level=0 / analysis-save-reuse-level=0 / analysis-load-reuse-level=0 / scale-factor=0 / refine-intra=0 / refine-inter=0 / refine-mv=1 / refine-ctu-distortion=0 / no-limit-sao / ctu-info=0 / no-lowpass-dct / refine-analysis-type=0 / copy-pic=1 / max-ausize-factor=1.0 / no-dynamic-refine / no-single-sei / no-hevc-aq / no-svt / no-field / qp-adaptation-range=1.00 / scenecut-aware-qp=0conformance-window-offsets / right=0 / bottom=0 / decoder-max-rate=0 / no-vbv-live-multi-pass
Default          : Yes
Forced       : No
Color range      : Limited
Color primaries      : BT.2020
Transfer characteristics     : PQ
Matrix coefficients      : BT.2020 non-constant
Mastering display color primaries    : BT.2020
Mastering display luminance      : min: 0.0001 cd/m2, max: 1000 cd/m2
Maximum Content Light Level      : 106 cd/m2
Maximum Frame-Average Light Level    : 68 cd/m2

Audio #1
ID           : 2
Format       : DTS XLL
Format/Info      : Digital Theater Systems
Commercial name      : DTS-HD Master Audio
Codec ID         : A_DTS
Duration         : 1 h 36 min
Bit rate mode        : Variable
Bit rate         : 3 762 kb/s
Channel(s)       : 6 channels
Channel layout       : C L R Ls Rs LFE
Sampling rate        : 48.0 kHz
Frame rate       : 93.750 FPS (512 SPF)
Bit depth        : 24 bits
Compression mode     : Lossless
Stream size      : 2.55 GiB (31%)
Title        : English DTS-HD MA 5.1
Language         : English
Default          : Yes
Forced       : No

Audio #2
ID           : 3
Format       : AC-3
Format/Info      : Audio Coding 3
Commercial name      : Dolby Digital
Codec ID         : A_AC3
Duration         : 1 h 36 min
Bit rate mode        : Constant
Bit rate         : 384 kb/s
Channel(s)       : 6 channels
Channel layout       : L R C LFE Ls Rs
Sampling rate        : 48.0 kHz
Frame rate       : 31.250 FPS (1536 SPF)
Compression mode     : Lossy
Stream size      : 266 MiB (3%)
Title        : English DD 5.1
Language         : English
Service kind         : Complete Main
Default          : No
Forced       : No

Text #1
ID           : 4
Format       : UTF-8
Codec ID         : S_TEXT/UTF8
Codec ID/Info        : UTF-8 Plain Text
Duration         : 1 h 34 min
Bit rate         : 56 b/s
Count of elements        : 1096
Stream size      : 39.0 KiB (0%)
Title        : English SRT
Language         : English
Default          : Yes
Forced       : No

Text #2
ID           : 5
Format       : UTF-8
Codec ID         : S_TEXT/UTF8
Codec ID/Info        : UTF-8 Plain Text
Duration         : 1 h 34 min
Bit rate         : 63 b/s
Count of elements        : 1232
Stream size      : 43.7 KiB (0%)
Title        : English SDH SRT
Language         : English
Default          : No
Forced       : No

Menu
00:00:00.000         : en:Chapter 01
00:04:00.240         : en:Chapter 02
00:11:35.611         : en:Chapter 03
00:18:51.880         : en:Chapter 04
00:24:10.365         : en:Chapter 05
00:27:09.794         : en:Chapter 06
00:35:16.614         : en:Chapter 07
00:42:11.654         : en:Chapter 08
00:46:07.890         : en:Chapter 09
00:55:13.476         : en:Chapter 10
01:01:06.079         : en:Chapter 11
01:06:25.648         : en:Chapter 12
01:13:43.293         : en:Chapter 13
01:19:50.243         : en:Chapter 14
01:24:30.231         : en:Chapter 15
01:27:35.792         : en:Chapter 16



悠悠MP4_MP4电影下载_处女之死 The.Virgin.Suicides.1999.2160p.UHD.BluRay.x265.10bit.HDR.DTS-HD.MA.5.1-RARBG 8.25 GB
悠悠MP4_MP4电影下载_处女之死 The.Virgin.Suicides.1999.2160p.UHD.BluRay.x265.10bit.HDR.DTS-HD.MA.5.1-RARBG 8.25 GB
悠悠MP4_MP4电影下载_处女之死 The.Virgin.Suicides.1999.2160p.UHD.BluRay.x265.10bit.HDR.DTS-HD.MA.5.1-RARBG 8.25 GB

磁力链接

magnet:?xt=urn:btih:14c57ba4a7e50ffff554455c64718c10c800034b

上传的附件:
最新回复 (0)
返回
本站所有资源均收集自互联网,没有提供影片资源存储, 也未参与录制、上传,若本站收录的资源无意侵犯了您的权益, 请联系邮箱:gogoimgs#gmail.com(#[email protected])