[2022] [欧美] [惊悚] [x265-4K-HDR] 尸体游戏 Bodies.Bodies.Bodies.2022.2160p.WEB-DL.DDP5.1.Atmos.DV.MP4.x265-DVSUX 16.65 GB

uump4 2月前

悠悠MP4_MP4电影下载_尸体游戏 Bodies.Bodies.Bodies.2022.2160p.WEB-DL.DDP5.1.Atmos.DV.MP4.x265-DVSUX 16.65 GB

◎片  名 尸体游戏 Bodies, Bodies, Bodies / 天黑请毙命(台) / 尸体,尸体,尸体 / 狼人杀(豆友译名) / This Is Not A Safe Space
◎年  代 2022
◎产  地 美国
◎类  别 喜剧 / 惊悚 / 恐怖
◎语  言 英语
◎上映日期 2022-03-14(西南偏南电影节) / 2022-08-05(美国)
◎IMDb评分  6.5/10 from 12888 users
◎IMDb链接  https://www.imdb.com/title/tt8110652/
◎豆瓣评分 5.2/10 from 1336 users
◎豆瓣链接 https://movie.douban.com/subject/30163010/
◎片  长 95分钟
◎导  演 哈里纳·雷金 Halina Reijn
◎编  剧 科洛·奥野 Chloe Okuno
◎主  演 皮特·戴维森 Pete Davidson
       阿曼德拉·斯坦伯格  Amandla Stenberg
       玛丽亚·巴卡洛娃 Maria Bakalova
       瑞秋·塞诺特 Rachel Sennott
       李·佩斯 Lee Pace
       米哈拉·赫罗德 Myha’la Herrold
       康纳·欧麦利 Conner O'malley

◎简  介

  人前手牵手,闭眼下毒手!                                    
      究竟谁才是真朋友、谁又是黑暗中的凶手?                                    
      讲述一群朋友在偏远的周末派对上玩了一个名叫“Bodies Bodie Bodies”模拟谋杀的游戏,结果却发生了真正的谋杀。



Video
ID           : 1
Format       : HEVC
Format/Info      : High Efficiency Video Coding
Format profile       : Main [email protected]@High
HDR format       : Dolby Vision, Version 1.0, dvhe.05.06, BL+RPU
Codec ID         : dvhe
Codec ID/Info        : High Efficiency Video Coding with Dolby Vision
Duration         : 1 h 33 min
Bit rate         : 24.6 Mb/s
Width        : 3 840 pixels
Original width       : 3 836 pixels
Height       : 1 608 pixels
Original height      : 1 604 pixels
Display aspect ratio     : 2.40:1
Original display aspect ratio    : 2.40:1
Frame rate mode      : Constant
Frame rate       : 23.976 (24000/1001) FPS
Color space      : YUV
Chroma subsampling       : 4:2:0
Bit depth        : 10 bits
Bits/(Pixel*Frame)       : 0.166
Stream size      : 16.1 GiB (97%)
Default          : Yes
Alternate group      : 1
Encoded date         : UTC 2022-09-27 05:40:21
Tagged date      : UTC 2022-09-27 05:41:46
Codec configuration box      : hvcC+dvcC

Audio
ID           : 2
Format       : E-AC-3 JOC
Format/Info      : Enhanced AC-3 with Joint Object Coding
Commercial name      : Dolby Digital Plus with Dolby Atmos
Codec ID         : ec-3
Duration         : 1 h 33 min
Bit rate mode        : Constant
Bit rate         : 768 kb/s
Maximum bit rate     : 811 kb/s
Channel(s)       : 6 channels
Channel layout       : L R C LFE Ls Rs
Sampling rate        : 48.0 kHz
Frame rate       : 31.250 FPS (1536 SPF)
Compression mode     : Lossy
Stream size      : 516 MiB (3%)
Title        : English
Language         : English
Service kind         : Complete Main
Default          : Yes
Alternate group      : 1
Tagged date      : UTC 2022-09-27 05:41:46
Complexity index     : Not present / 16
Number of dynamic objects    : 15
Bed channel count        : 1 channel
Bed channel configuration    : LFE

Text #1
ID           : 3
Format       : Timed Text
Codec ID         : tx3g
Duration         : 1 h 33 min
Bit rate mode        : Variable
Bit rate         : 82 b/s
Frame rate       : 0.631 FPS
Stream size      : 56.0 KiB (0%)
Title        : English
Language         : English
Forced       : No
Encoded date         : UTC 2022-09-27 05:41:46
Tagged date      : UTC 2022-09-27 05:41:46

Text #2
ID           : 4
Format       : Timed Text
Codec ID         : tx3g
Duration         : 1 h 28 min
Bit rate mode        : Variable
Bit rate         : 79 b/s
Frame rate       : 0.597 FPS
Stream size      : 51.2 KiB (0%)
Title        : English
Language         : English
Forced       : No
Encoded date         : UTC 2022-09-27 05:41:46
Tagged date      : UTC 2022-09-27 05:41:46



There is a very limited amount of devices that can play dv muxed this way so keep that in mind before downloading.

Screenshots are tonemapped to 8bit SDR for compatibility

悠悠MP4_MP4电影下载_尸体游戏 Bodies.Bodies.Bodies.2022.2160p.WEB-DL.DDP5.1.Atmos.DV.MP4.x265-DVSUX 16.65 GB
悠悠MP4_MP4电影下载_尸体游戏 Bodies.Bodies.Bodies.2022.2160p.WEB-DL.DDP5.1.Atmos.DV.MP4.x265-DVSUX 16.65 GB
悠悠MP4_MP4电影下载_尸体游戏 Bodies.Bodies.Bodies.2022.2160p.WEB-DL.DDP5.1.Atmos.DV.MP4.x265-DVSUX 16.65 GB

磁力链接

magnet:?xt=urn:btih:968dbac74590ddf09855976a4ea8d6a194d5444e

上传的附件:
最新回复 (0)
返回
本站所有资源均收集自互联网,没有提供影片资源存储, 也未参与录制、上传,若本站收录的资源无意侵犯了您的权益, 请联系邮箱:gogoimgs#gmail.com(#[email protected])