[2022] [欧美] [科幻] [x265-4K-HDR] 僵尸来袭2:末日 Wyrmwood.Apocalypse.2021.2160p.UHD.BluRay.x265.10bit.HDR.DTS-HD.MA.5.1-WATCHABLE 31.90 GB

uump4 1月前

悠悠MP4_MP4电影下载_僵尸来袭2:末日 Wyrmwood.Apocalypse.2021.2160p.UHD.BluRay.x265.10bit.HDR.DTS-HD.MA.5.1-WATCHABLE 31.90 GB

◎片  名 僵尸来袭2:末日 Wyrmwood: Apocalypse
◎年  代 2022
◎产  地 澳大利亚 Australia
◎类  别 动作 / 科幻 / 恐怖
◎语  言 英语
◎上映日期 2022-02-01(悉尼)
◎IMDb评分  5.4/10 from 1960 users
◎IMDb链接  https://www.imdb.com/title/tt14858054/
◎豆瓣评分 5.8/10 from 2493 users
◎豆瓣链接 https://movie.douban.com/subject/35505492/
◎片  长 88分钟
◎导  演 凯亚·罗奇-特纳 Kiah Roache-Turner
◎编  剧 凯亚·罗奇-特纳 Kiah Roache-Turner
       崔斯坦·罗奇-特纳 Tristan Roache-Turner
◎主  演 碧安卡·布雷迪 Bianca Bradey
       吉姆·罗比逊 Jim Robison
       劳伦·格里姆森 Lauren Grimson
       迪恩·基尔伍德 Dean Kyrwood
       崔斯坦·麦金农  Tristan McKinnon
       塔西娅·扎拉 Tasia Zalar
       杰克·莱恩 Jake Ryan
       香缇·巴恩斯-考恩 Shantae Barnes-Cowan
       卢克·麦肯齐 Luke McKenzie
       尼古拉斯·波舍尔 Nicholas Boshier

◎简  介

  In a zombie-infested Australian wasteland, soldier Rhys has dedicated his life to tracking and capturing survivors for the Surgeon General in hopes of finding a cure.



Video
ID           : 1
Format       : HEVC
Format/Info      : High Efficiency Video Coding
Format profile       : Main [email protected]@High
HDR format       : SMPTE ST 2086, HDR10 compatible
Codec ID         : V_MPEGH/ISO/HEVC
Duration         : 1 h 28 min
Bit rate         : 48.9 Mb/s
Width        : 3 840 pixels
Height       : 1 608 pixels
Display aspect ratio     : 2.40:1
Frame rate mode      : Constant
Frame rate       : 24.000 FPS
Color space      : YUV
Chroma subsampling       : 4:2:0 (Type 2)
Bit depth        : 10 bits
Bits/(Pixel*Frame)       : 0.330
Stream size      : 30.1 GiB (95%)
Writing library      : x265 3.5+36-1f2c8da77:[Windows][GCC 11.2.0][64 bit] 10bit
Encoding settings        : cpuid=1111039 / frame-threads=5 / numa-pools=32 / wpp / no-pmode / no-pme / no-psnr / no-ssim / log-level=2 / input-csp=1 / input-res=3840x1608 / interlace=0 / total-frames=126720 / level-idc=51 / high-tier=1 / uhd-bd=0 / ref=4 / no-allow-non-conformance / repeat-headers / annexb / aud / no-eob / no-eos / hrd / info / hash=0 / no-temporal-layers / no-open-gop / min-keyint=24 / keyint=250 / gop-lookahead=0 / bframes=4 / b-adapt=2 / b-pyramid / bframe-bias=0 / rc-lookahead=25 / lookahead-slices=4 / scenecut=40 / no-hist-scenecut / radl=0 / no-splice / no-intra-refresh / ctu=64 / min-cu-size=8 / rect / no-amp / max-tu-size=32 / tu-inter-depth=1 / tu-intra-depth=1 / limit-tu=0 / rdoq-level=2 / dynamic-rd=0.00 / no-ssim-rd / signhide / no-tskip / nr-intra=0 / nr-inter=0 / no-constrained-intra / strong-intra-smoothing / max-merge=3 / limit-refs=3 / limit-modes / me=3 / subme=3 / merange=57 / temporal-mvp / no-frame-dup / no-hme / weightp / no-weightb / no-analyze-src-pics / deblock=-3:-3 / no-sao / no-sao-non-deblock / rd=4 / selective-sao=0 / no-early-skip / rskip / no-fast-intra / no-tskip-fast / no-cu-lossless / no-b-intra / no-splitrd-skip / rdpenalty=0 / psy-rd=2.00 / psy-rdoq=1.00 / no-rd-refine / no-lossless / cbqpoffs=0 / crqpoffs=0 / rc=crf / crf=15.5 / qcomp=0.60 / qpstep=4 / stats-write=0 / stats-read=0 / vbv-maxrate=160000 / vbv-bufsize=160000 / vbv-init=0.9 / min-vbv-fullness=50.0 / max-vbv-fullness=80.0 / crf-max=0.0 / crf-min=0.0 / ipratio=1.40 / pbratio=1.30 / aq-mode=4 / aq-strength=1.00 / cutree / zone-count=0 / no-strict-cbr / qg-size=32 / no-rc-grain / qpmax=69 / qpmin=0 / no-const-vbv / sar=1 / overscan=0 / videoformat=5 / range=0 / colorprim=9 / transfer=16 / colormatrix=9 / chromaloc=1 / chromaloc-top=2 / chromaloc-bottom=2 / display-window=0 / master-display=G(13250,34500)B(7500,3000)R(34000,16000)WP(15635,16450)L(10000000,1) / cll=996,143 / min-luma=0 / max-luma=1023 / log2-max-poc-lsb=8 / vui-timing-info / vui-hrd-info / slices=1 / no-opt-qp-pps / no-opt-ref-list-length-pps / no-multi-pass-opt-rps / scenecut-bias=0.05 / hist-threshold=0.03 / no-opt-cu-delta-qp / no-aq-motion / hdr10 / hdr10-opt / dhdr10-opt / no-idr-recovery-sei / analysis-reuse-level=0 / analysis-save-reuse-level=0 / analysis-load-reuse-level=0 / scale-factor=0 / refine-intra=0 / refine-inter=0 / refine-mv=1 / refine-ctu-distortion=0 / no-limit-sao / ctu-info=0 / no-lowpass-dct / refine-analysis-type=0 / copy-pic=1 / max-ausize-factor=1.0 / no-dynamic-refine / no-single-sei / no-hevc-aq / no-svt / no-field / qp-adaptation-range=1.00 / scenecut-aware-qp=0conformance-window-offsets / right=0 / bottom=0 / decoder-max-rate=0 / no-vbv-live-multi-pass
Default          : Yes
Forced       : No
Color range      : Limited
Color primaries      : BT.2020
Transfer characteristics     : PQ
Matrix coefficients      : BT.2020 non-constant
Mastering display color primaries    : Display P3
Mastering display luminance      : min: 0.0001 cd/m2, max: 1000 cd/m2
Maximum Content Light Level      : 996 cd/m2
Maximum Frame-Average Light Level    : 143 cd/m2

Audio
ID           : 2
Format       : DTS XLL
Format/Info      : Digital Theater Systems
Commercial name      : DTS-HD Master Audio
Codec ID         : A_DTS
Duration         : 1 h 28 min
Bit rate mode        : Variable
Bit rate         : 2 395 kb/s
Channel(s)       : 6 channels
Channel layout       : C L R Ls Rs LFE
Sampling rate        : 48.0 kHz
Frame rate       : 93.750 FPS (512 SPF)
Bit depth        : 16 bits
Compression mode     : Lossless
Stream size      : 1.47 GiB (5%)
Language         : English
Default          : Yes
Forced       : No

Text #1
ID           : 3
Format       : PGS
Muxing mode      : zlib
Codec ID         : S_HDMV/PGS
Codec ID/Info        : Picture based subtitle format used on BDs/HD-DVDs
Duration         : 1 h 22 min
Bit rate         : 16.4 kb/s
Frame rate       : 0.217 FPS
Count of elements        : 1074
Stream size      : 9.68 MiB (0%)
Title        : German Full Subtitles
Language         : German
Default          : No
Forced       : No

Text #2
ID           : 4
Format       : PGS
Muxing mode      : zlib
Codec ID         : S_HDMV/PGS
Codec ID/Info        : Picture based subtitle format used on BDs/HD-DVDs
Duration         : 1 h 22 min
Bit rate         : 16.1 kb/s
Frame rate       : 0.245 FPS
Count of elements        : 1216
Stream size      : 9.50 MiB (0%)
Title        : English Full Subtitles
Language         : English
Default          : No
Forced       : No

Text #3
ID           : 5
Format       : PGS
Muxing mode      : zlib
Codec ID         : S_HDMV/PGS
Codec ID/Info        : Picture based subtitle format used on BDs/HD-DVDs
Duration         : 1 h 10 min
Bit rate         : 173 b/s
Frame rate       : 0.003 FPS
Count of elements        : 12
Stream size      : 89.6 KiB (0%)
Title        : German Forced Subtitles
Language         : German
Default          : No
Forced       : No

Menu
00:00:00.000         : en:Chapter 01
00:06:59.125         : en:Chapter 02
00:14:26.667         : en:Chapter 03
00:21:05.250         : en:Chapter 04
00:27:45.958         : en:Chapter 05
00:35:58.167         : en:Chapter 06
00:42:32.208         : en:Chapter 07
00:51:09.500         : en:Chapter 08
00:58:53.708         : en:Chapter 09
01:06:08.250         : en:Chapter 10
01:12:17.500         : en:Chapter 11
01:19:01.000         : en:Chapter 12



悠悠MP4_MP4电影下载_僵尸来袭2:末日 Wyrmwood.Apocalypse.2021.2160p.UHD.BluRay.x265.10bit.HDR.DTS-HD.MA.5.1-WATCHABLE 31.90 GB
悠悠MP4_MP4电影下载_僵尸来袭2:末日 Wyrmwood.Apocalypse.2021.2160p.UHD.BluRay.x265.10bit.HDR.DTS-HD.MA.5.1-WATCHABLE 31.90 GB
悠悠MP4_MP4电影下载_僵尸来袭2:末日 Wyrmwood.Apocalypse.2021.2160p.UHD.BluRay.x265.10bit.HDR.DTS-HD.MA.5.1-WATCHABLE 31.90 GB

磁力链接

magnet:?xt=urn:btih:040b9c7fef75cfda9d84b65012f4bcd2285558c3

上传的附件:
最新回复 (0)
返回
本站所有资源均收集自互联网,没有提供影片资源存储, 也未参与录制、上传,若本站收录的资源无意侵犯了您的权益, 请联系邮箱:gogoimgs#gmail.com(#[email protected])