[2021] [欧美] [剧情] [BD-Remux] 记忆 Memoria.2021.1080p.BluRay.REMUX.AVC.DTS-HD.MA.5.1-FGT 27.63 GB

uump4 1月前

悠悠MP4_MP4电影下载_记忆 Memoria.2021.1080p.BluRay.REMUX.AVC.DTS-HD.MA.5.1-FGT 27.63 GB

◎片  名 记忆 Memoria
◎年  代 2021
◎产  地 哥伦比亚 / 泰国 / 法国 / 德国 / 墨西哥 / 卡塔尔 / 英国 / 中国大陆 / 瑞士
◎类  别 剧情
◎语  言 英语 / 西班牙语
◎上映日期 2022(中国大陆) / 2021-07-15(戛纳电影节) / 2021-09-30(哥伦比亚)
◎IMDb评分  6.6/10 from 7204 users
◎IMDb链接  https://www.imdb.com/title/tt8399288/
◎豆瓣评分 7.7/10 from 7948 users
◎豆瓣链接 https://movie.douban.com/subject/30137576/
◎片  长 136分钟
◎导  演 阿彼察邦·韦拉斯哈古 Apichatpong Weerasethakul
◎编  剧 阿彼察邦·韦拉斯哈古 Apichatpong Weerasethakul
◎主  演 蒂尔达·斯文顿 Tilda Swinton
       让娜·巴利巴尔 Jeanne Balibar
       艾格尼丝·布雷克 Agnes Brekke
       埃尔金·迪亚兹 Elkin Díaz
       胡安·帕布罗·乌雷戈 Juan Pablo Urrego
       丹尼尔·希梅内斯·卡乔 Daniel Giménez Cacho

◎简  介

  杰西卡·霍兰德(蒂尔达·斯文顿 Tilda Swinton 饰)是旅居哥伦比亚的欧洲人,她来到波哥大看望她生病的姐姐(艾格尼丝·布雷克 Agnes Brekke 饰)。因为总是听到奇怪的巨响,于是她试图去找寻幻听的根源,并由此开始了一场由幻想、偶遇与重逢组成的,与记忆和历史产生回响的旅程。

◎获奖情况

  第74届戛纳电影节 (2021)
  主竞赛单元 金棕榈奖(提名)
  阿彼察邦·韦拉斯哈古主竞赛单元 评审团奖
  阿彼察邦·韦拉斯哈古

  第56届美国国家影评人协会奖 (2022)
  最佳摄影(提名)
  萨永普·穆克迪普罗



Video
ID           : 1
ID in the original source medium     : 4113 (0x1011)
Format       : AVC
Format/Info      : Advanced Video Codec
Format profile       : [email protected]
Format settings      : CABAC / 4 Ref Frames
Format settings, CABAC       : Yes
Format settings, Reference frames    : 4 frames
Codec ID         : V_MPEG4/ISO/AVC
Duration         : 2 h 15 min
Bit rate mode        : Variable
Bit rate         : 27.0 Mb/s
Maximum bit rate     : 35.0 Mb/s
Width        : 1 920 pixels
Height       : 1 080 pixels
Display aspect ratio     : 16:9
Frame rate mode      : Constant
Frame rate       : 24.000 FPS
Standard         : NTSC
Color space      : YUV
Chroma subsampling       : 4:2:0
Bit depth        : 8 bits
Scan type        : Progressive
Bits/(Pixel*Frame)       : 0.543
Stream size      : 25.6 GiB (93%)
Language         : English
Default          : No
Forced       : No
Color range      : Limited
Color primaries      : BT.709
Transfer characteristics     : BT.709
Matrix coefficients      : BT.709
Original source medium       : Blu-ray

Audio #1
ID           : 2
ID in the original source medium     : 4352 (0x1100)
Format       : DTS XLL
Format/Info      : Digital Theater Systems
Commercial name      : DTS-HD Master Audio
Codec ID         : A_DTS
Duration         : 2 h 15 min
Bit rate mode        : Variable
Bit rate         : 1 916 kb/s
Channel(s)       : 6 channels
Channel layout       : C L R Ls Rs LFE
Sampling rate        : 48.0 kHz
Frame rate       : 93.750 FPS (512 SPF)
Bit depth        : 16 bits
Compression mode     : Lossless
Stream size      : 1.82 GiB (7%)
Title        : DTS-HD MA 5.1
Language         : English
Default          : Yes
Forced       : No
Original source medium       : Blu-ray

Audio #2
ID           : 3
ID in the original source medium     : 4353 (0x1101)
Format       : AC-3
Format/Info      : Audio Coding 3
Commercial name      : Dolby Digital
Codec ID         : A_AC3
Duration         : 2 h 15 min
Bit rate mode        : Constant
Bit rate         : 192 kb/s
Channel(s)       : 2 channels
Channel layout       : L R
Sampling rate        : 48.0 kHz
Frame rate       : 31.250 FPS (1536 SPF)
Compression mode     : Lossy
Stream size      : 187 MiB (1%)
Title        : DD 2.0
Language         : English
Service kind         : Complete Main
Default          : No
Forced       : No
Original source medium       : Blu-ray

Text #1
ID           : 4
Format       : UTF-8
Codec ID         : S_TEXT/UTF8
Codec ID/Info        : UTF-8 Plain Text
Duration         : 2 h 2 min
Bit rate         : 11 b/s
Frame rate       : 0.055 FPS
Count of elements        : 405
Stream size      : 9.88 KiB (0%)
Title        : FORCED
Language         : English
Default          : No
Forced       : Yes

Text #2
ID           : 5
Format       : UTF-8
Codec ID         : S_TEXT/UTF8
Codec ID/Info        : UTF-8 Plain Text
Duration         : 2 h 7 min
Bit rate         : 18 b/s
Frame rate       : 0.087 FPS
Count of elements        : 666
Stream size      : 17.0 KiB (0%)
Language         : English
Default          : Yes
Forced       : No

Text #3
ID           : 6
Format       : UTF-8
Codec ID         : S_TEXT/UTF8
Codec ID/Info        : UTF-8 Plain Text
Duration         : 2 h 15 min
Bit rate         : 25 b/s
Frame rate       : 0.119 FPS
Count of elements        : 965
Stream size      : 25.3 KiB (0%)
Title        : SDH
Language         : English
Default          : No
Forced       : No

Text #4
ID           : 7
ID in the original source medium     : 4608 (0x1200)
Format       : PGS
Muxing mode      : zlib
Codec ID         : S_HDMV/PGS
Codec ID/Info        : Picture based subtitle format used on BDs/HD-DVDs
Duration         : 2 h 15 min
Bit rate         : 13.9 kb/s
Frame rate       : 0.238 FPS
Count of elements        : 1932
Stream size      : 13.5 MiB (0%)
Language         : English
Default          : No
Forced       : No
Original source medium       : Blu-ray

Text #5
ID           : 8
ID in the original source medium     : 4609 (0x1201)
Format       : PGS
Muxing mode      : zlib
Codec ID         : S_HDMV/PGS
Codec ID/Info        : Picture based subtitle format used on BDs/HD-DVDs
Duration         : 2 h 2 min
Bit rate         : 6 066 b/s
Frame rate       : 0.111 FPS
Count of elements        : 812
Stream size      : 5.31 MiB (0%)
Title        : FORCED
Language         : English
Default          : No
Forced       : No
Original source medium       : Blu-ray

Text #6
ID           : 9
ID in the original source medium     : 4609 (0x1201)
Format       : PGS
Muxing mode      : zlib
Codec ID         : S_HDMV/PGS
Codec ID/Info        : Picture based subtitle format used on BDs/HD-DVDs
Duration         : 2 h 2 min
Bit rate         : 6 066 b/s
Frame rate       : 0.111 FPS
Count of elements        : 812
Stream size      : 5.31 MiB (0%)
Title        : FORCED
Language         : English
Default          : No
Forced       : No
Original source medium       : Blu-ray

Menu
00:00:00.000         : en:Chapter 01
00:18:14.166         : en:Chapter 02
00:40:20.000         : en:Chapter 03
01:04:23.291         : en:Chapter 04
01:32:54.041         : en:Chapter 05
01:55:58.416         : en:Chapter 06
02:07:55.916         : en:Chapter 07



悠悠MP4_MP4电影下载_记忆 Memoria.2021.1080p.BluRay.REMUX.AVC.DTS-HD.MA.5.1-FGT 27.63 GB
悠悠MP4_MP4电影下载_记忆 Memoria.2021.1080p.BluRay.REMUX.AVC.DTS-HD.MA.5.1-FGT 27.63 GB
悠悠MP4_MP4电影下载_记忆 Memoria.2021.1080p.BluRay.REMUX.AVC.DTS-HD.MA.5.1-FGT 27.63 GB

磁力链接

magnet:?xt=urn:btih:b118deca7c9a1175cbfc868d6bc61b28810a715c

上传的附件:
最新回复 (0)
返回
本站所有资源均收集自互联网,没有提供影片资源存储, 也未参与录制、上传,若本站收录的资源无意侵犯了您的权益, 请联系邮箱:gogoimgs#gmail.com(#[email protected])