[更早] [欧美] [剧情] [x264-1080P] La femme au couteau The.Woman.With.a.Knife.1969.FRENCH.1080p.AMZN.WEBRip.DDP2.0.x264-SMURF 5.28 GB

uump4 1月前

悠悠MP4_MP4电影下载_La femme au couteau The.Woman.With.a.Knife.1969.FRENCH.1080p.AMZN.WEBRip.DDP2.0.x264-SMURF 5.28 GB

◎片  名 La femme au couteau / The Woman with the Knife
◎年  代 1969
◎产  地 科特迪瓦
◎类  别 剧情
◎语  言 法语
◎上映日期 2020-01-19(美国)
◎IMDb评分  5.8/10 from 23 users
◎IMDb链接  https://www.imdb.com/title/tt0064322/
◎豆瓣评分 /10 from 0 users
◎豆瓣链接 https://movie.douban.com/subject/19963283/
◎片  长 80分钟
◎导  演 
◎编  剧 
◎主  演 

◎简  介

  A young man returns from Europe obsessed with his sexual inhibition.



Video
ID           : 1
Format       : AVC
Format/Info      : Advanced Video Codec
Format profile       : [email protected]
Format settings      : CABAC / 4 Ref Frames
Format settings, CABAC       : Yes
Format settings, Reference frames    : 4 frames
Codec ID         : V_MPEG4/ISO/AVC
Duration         : 1 h 18 min
Bit rate mode        : Constant
Bit rate         : 9 443 kb/s
Nominal bit rate     : 10 000 kb/s
Width        : 1 440 pixels
Height       : 1 080 pixels
Display aspect ratio     : 4:3
Frame rate mode      : Constant
Frame rate       : 24.000 FPS
Color space      : YUV
Chroma subsampling       : 4:2:0
Bit depth        : 8 bits
Scan type        : Progressive
Bits/(Pixel*Frame)       : 0.253
Stream size      : 5.16 GiB (98%)
Language         : French
Default          : Yes
Forced       : No
Color range      : Limited
Color primaries      : BT.709
Transfer characteristics     : BT.709
Matrix coefficients      : BT.709

Audio
ID           : 2
Format       : E-AC-3
Format/Info      : Enhanced AC-3
Commercial name      : Dolby Digital Plus
Codec ID         : A_EAC3
Duration         : 1 h 18 min
Bit rate mode        : Constant
Bit rate         : 224 kb/s
Channel(s)       : 2 channels
Channel layout       : L R
Sampling rate        : 48.0 kHz
Frame rate       : 31.250 FPS (1536 SPF)
Compression mode     : Lossy
Stream size      : 125 MiB (2%)
Language         : French
Service kind         : Complete Main
Default          : Yes
Forced       : No

Text
ID           : 3
Format       : UTF-8
Codec ID         : S_TEXT/UTF8
Codec ID/Info        : UTF-8 Plain Text
Duration         : 1 h 17 min
Bit rate         : 35 b/s
Frame rate       : 0.128 FPS
Count of elements        : 596
Stream size      : 20.4 KiB (0%)
Language         : English
Default          : No
Forced       : No



悠悠MP4_MP4电影下载_La femme au couteau The.Woman.With.a.Knife.1969.FRENCH.1080p.AMZN.WEBRip.DDP2.0.x264-SMURF 5.28 GB
悠悠MP4_MP4电影下载_La femme au couteau The.Woman.With.a.Knife.1969.FRENCH.1080p.AMZN.WEBRip.DDP2.0.x264-SMURF 5.28 GB
悠悠MP4_MP4电影下载_La femme au couteau The.Woman.With.a.Knife.1969.FRENCH.1080p.AMZN.WEBRip.DDP2.0.x264-SMURF 5.28 GB

磁力链接

magnet:?xt=urn:btih:57765127fe91c7ebd7cd2b2084d91cf6f22fca41

上传的附件:
最新回复 (0)
返回
本站所有资源均收集自互联网,没有提供影片资源存储, 也未参与录制、上传,若本站收录的资源无意侵犯了您的权益, 请联系邮箱:gogoimgs#gmail.com(#[email protected])