[更早] [欧美] [犯罪] [BD-Remux] 猜火车 Trainspotting.1996.1080p.BluRay.REMUX.AVC.DTS-HD.MA.5.1-FGT 25.71 GB

uump4 1月前

悠悠MP4_MP4电影下载_猜火车 Trainspotting.1996.1080p.BluRay.REMUX.AVC.DTS-HD.MA.5.1-FGT 25.71 GB

◎片  名 猜火车 Trainspotting / 迷幻列车(港) / 定位的火车
◎年  代 1996
◎产  地 英国
◎类  别 剧情 / 犯罪
◎语  言 英语
◎上映日期 1996-02-23(英国)
◎IMDb评分  8.1/10 from 676853 users
◎IMDb链接  https://www.imdb.com/title/tt0117951/
◎豆瓣评分 8.6/10 from 387181 users
◎豆瓣链接 https://movie.douban.com/subject/1292528/
◎片  长 94分钟
◎导  演 丹尼·博伊尔 Danny Boyle
◎编  剧 埃文·威尔什 Irvine Welsh
       约翰·霍奇 John Hodge
◎主  演 伊万·麦克格雷格 Ewan McGregor
       艾文·布莱纳 Ewen Bremner
       约翰尼·李·米勒 Jonny Lee Miller
       凯文·麦克基德 Kevin McKidd
       罗伯特·卡莱尔 Robert Carlyle
       凯莉·麦克唐纳 Kelly Macdonald
       彼得·穆兰 Peter Mullan
       詹姆斯·科兹莫 James Cosmo
       艾琳·尼古拉斯 Eileen Nicholas
       苏珊·维德勒 Susan Vidler
       波林·林奇 Pauline Lynch
       雪莉·亨德森 Shirley Henderson
       斯图尔特·麦克奎里 Stuart McQuarrie
       埃文·威尔什 Irvine Welsh
       戴尔·温顿 Dale Winton
       基思·艾伦 Keith Allen
       凯文·艾伦 Kevin Allen
       菲奥娜·贝尔 Fiona Bell
       休·罗斯 Hugh Ross
       芬利·威尔士 Finlay Welsh
       汤姆·德尔玛 Tom Delmar
       约翰·霍奇 John Hodge
       安德鲁·麦克唐纳 Andrew Macdonald
       Stuart McGugan Stuart McGugan

◎简  介

  苏格兰爱丁堡,雷登(伊万·麦克格雷格 Ewan McGregor 饰)、土豆(艾文·布莱纳 Ewen Bremner 饰)和病仔(约翰尼·李·米勒 Jonny Lee Miller 饰)三个青年过着混沌糜烂的生活,他们吸毒、滥交、诈骗无所不作,而在如此肆无忌惮挥霍青春的过程中,毒品成为一切万恶之源。雷登对之亦爱亦恨,试图戒毒却最终重蹈覆辙。在一次纵情狂欢后,他们三个不知谁和少女爱丽森(Susan Vidler 饰)所生的婴儿死去。以此为开端,噩梦真正降临。土豆抢劫时锒铛入狱,雷登吸食毒品过量被送往医院抢救,后被强制戒毒。恐怖的幻觉和心底生气的恐惧迫使他不得不和毒品一刀两断。看似美好的新生活,但往日狐朋狗友贝格比(罗伯特·卡莱尔 Robert Carlyle 饰)等找上门来,再度给他带来无限的烦恼……                                    
      本片根据欧文·威尔士(Irvine Welsh)的同名小说改编,

◎获奖情况

  第69届奥斯卡金像奖 (1997)
  最佳改编剧本(提名)
  约翰·霍奇

  第49届英国电影学院奖 (1996)
  电影奖 最佳英国影片(提名)
  丹尼·博伊尔 / 安德鲁·麦克唐纳电影奖 最佳改编剧本
  约翰·霍奇



Video
ID           : 1
ID in the original source medium     : 4113 (0x1011)
Format       : AVC
Format/Info      : Advanced Video Codec
Format profile       : High@L4.1
Format settings      : CABAC / 4 Ref Frames
Format settings, CABAC       : Yes
Format settings, Reference frames    : 4 frames
Codec ID         : V_MPEG4/ISO/AVC
Duration         : 1 h 33 min
Bit rate mode        : Variable
Bit rate         : 31.9 Mb/s
Maximum bit rate     : 35.0 Mb/s
Width        : 1 920 pixels
Height       : 1 080 pixels
Display aspect ratio     : 16:9
Frame rate mode      : Constant
Frame rate       : 23.976 (24000/1001) FPS
Color space      : YUV
Chroma subsampling       : 4:2:0
Bit depth        : 8 bits
Scan type        : Progressive
Bits/(Pixel*Frame)       : 0.642
Stream size      : 20.9 GiB (81%)
Language         : English
Default          : No
Forced       : No
Color range      : Limited
Color primaries      : BT.709
Transfer characteristics     : BT.709
Matrix coefficients      : BT.709
Original source medium       : Blu-ray

Audio #1
ID           : 2
ID in the original source medium     : 4352 (0x1100)
Format       : DTS XLL
Format/Info      : Digital Theater Systems
Commercial name      : DTS-HD Master Audio
Codec ID         : A_DTS
Duration         : 1 h 33 min
Bit rate mode        : Variable
Bit rate         : 3 790 kb/s
Channel(s)       : 6 channels
Channel layout       : C L R Ls Rs LFE
Sampling rate        : 48.0 kHz
Frame rate       : 93.750 FPS (512 SPF)
Bit depth        : 24 bits
Compression mode     : Lossless
Stream size      : 2.49 GiB (10%)
Title        : DTS-HD MA 5.1
Language         : English
Default          : Yes
Forced       : No
Original source medium       : Blu-ray

Audio #2
ID           : 3
ID in the original source medium     : 4353 (0x1101)
Format       : DTS
Format/Info      : Digital Theater Systems
Codec ID         : A_DTS
Duration         : 1 h 33 min
Bit rate mode        : Constant
Bit rate         : 768 kb/s
Channel(s)       : 6 channels
Channel layout       : C L R Ls Rs LFE
Sampling rate        : 48.0 kHz
Frame rate       : 93.750 FPS (512 SPF)
Bit depth        : 24 bits
Compression mode     : Lossy
Stream size      : 516 MiB (2%)
Title        : DTS 5.1
Language         : French
Default          : No
Forced       : No
Original source medium       : Blu-ray

Audio #3
ID           : 4
ID in the original source medium     : 4354 (0x1102)
Format       : DTS
Format/Info      : Digital Theater Systems
Codec ID         : A_DTS
Duration         : 1 h 33 min
Bit rate mode        : Constant
Bit rate         : 768 kb/s
Channel(s)       : 6 channels
Channel layout       : C L R Ls Rs LFE
Sampling rate        : 48.0 kHz
Frame rate       : 93.750 FPS (512 SPF)
Bit depth        : 24 bits
Compression mode     : Lossy
Stream size      : 516 MiB (2%)
Title        : DTS 5.1
Language         : Italian
Default          : No
Forced       : No
Original source medium       : Blu-ray

Audio #4
ID           : 5
ID in the original source medium     : 4355 (0x1103)
Format       : DTS
Format/Info      : Digital Theater Systems
Codec ID         : A_DTS
Duration         : 1 h 33 min
Bit rate mode        : Constant
Bit rate         : 768 kb/s
Channel(s)       : 6 channels
Channel layout       : C L R Ls Rs LFE
Sampling rate        : 48.0 kHz
Frame rate       : 93.750 FPS (512 SPF)
Bit depth        : 24 bits
Compression mode     : Lossy
Stream size      : 516 MiB (2%)
Title        : DTS 5.1
Language         : German
Default          : No
Forced       : No
Original source medium       : Blu-ray

Audio #5
ID           : 6
ID in the original source medium     : 4356 (0x1104)
Format       : DTS
Format/Info      : Digital Theater Systems
Codec ID         : A_DTS
Duration         : 1 h 33 min
Bit rate mode        : Constant
Bit rate         : 768 kb/s
Channel(s)       : 6 channels
Channel layout       : C L R Ls Rs LFE
Sampling rate        : 48.0 kHz
Frame rate       : 93.750 FPS (512 SPF)
Bit depth        : 24 bits
Compression mode     : Lossy
Stream size      : 516 MiB (2%)
Title        : DTS 5.1
Language         : Spanish
Default          : No
Forced       : No
Original source medium       : Blu-ray

Audio #6
ID           : 7
ID in the original source medium     : 4357 (0x1105)
Format       : AC-3
Format/Info      : Audio Coding 3
Commercial name      : Dolby Digital
Codec ID         : A_AC3
Duration         : 1 h 33 min
Bit rate mode        : Constant
Bit rate         : 192 kb/s
Channel(s)       : 2 channels
Channel layout       : L R
Sampling rate        : 48.0 kHz
Frame rate       : 31.250 FPS (1536 SPF)
Compression mode     : Lossy
Stream size      : 129 MiB (0%)
Title        : DD 2.0
Language         : English
Service kind         : Complete Main
Default          : No
Forced       : No
Original source medium       : Blu-ray

Text #1
ID           : 8
Format       : UTF-8
Codec ID         : S_TEXT/UTF8
Codec ID/Info        : UTF-8 Plain Text
Duration         : 1 h 29 min
Bit rate         : 62 b/s
Count of elements        : 1015
Stream size      : 41.4 KiB (0%)
Language         : English
Default          : Yes
Forced       : No

Text #2
ID           : 9
Format       : UTF-8
Codec ID         : S_TEXT/UTF8
Codec ID/Info        : UTF-8 Plain Text
Duration         : 1 h 29 min
Bit rate         : 65 b/s
Count of elements        : 1127
Stream size      : 43.2 KiB (0%)
Title        : SDH
Language         : English
Default          : No
Forced       : No

Text #3
ID           : 10
ID in the original source medium     : 4608 (0x1200)
Format       : PGS
Muxing mode      : zlib
Codec ID         : S_HDMV/PGS
Codec ID/Info        : Picture based subtitle format used on BDs/HD-DVDs
Duration         : 1 h 29 min
Bit rate         : 43.5 kb/s
Count of elements        : 2272
Stream size      : 28.0 MiB (0%)
Language         : English
Default          : No
Forced       : No
Original source medium       : Blu-ray

Text #4
ID           : 11
ID in the original source medium     : 4609 (0x1201)
Format       : PGS
Muxing mode      : zlib
Codec ID         : S_HDMV/PGS
Codec ID/Info        : Picture based subtitle format used on BDs/HD-DVDs
Duration         : 1 h 33 min
Bit rate         : 35.5 kb/s
Count of elements        : 2089
Stream size      : 23.7 MiB (0%)
Language         : French
Default          : No
Forced       : No
Original source medium       : Blu-ray

Text #5
ID           : 12
ID in the original source medium     : 4610 (0x1202)
Format       : PGS
Muxing mode      : zlib
Codec ID         : S_HDMV/PGS
Codec ID/Info        : Picture based subtitle format used on BDs/HD-DVDs
Duration         : 1 h 33 min
Bit rate         : 36.4 kb/s
Count of elements        : 2044
Stream size      : 24.3 MiB (0%)
Language         : Italian
Default          : No
Forced       : No
Original source medium       : Blu-ray

Text #6
ID           : 13
ID in the original source medium     : 4611 (0x1203)
Format       : PGS
Muxing mode      : zlib
Codec ID         : S_HDMV/PGS
Codec ID/Info        : Picture based subtitle format used on BDs/HD-DVDs
Duration         : 1 h 33 min
Bit rate         : 41.0 kb/s
Count of elements        : 2048
Stream size      : 27.4 MiB (0%)
Language         : German
Default          : No
Forced       : No
Original source medium       : Blu-ray

Text #7
ID           : 14
ID in the original source medium     : 4612 (0x1204)
Format       : PGS
Muxing mode      : zlib
Codec ID         : S_HDMV/PGS
Codec ID/Info        : Picture based subtitle format used on BDs/HD-DVDs
Duration         : 1 h 33 min
Bit rate         : 38.3 kb/s
Count of elements        : 2090
Stream size      : 25.5 MiB (0%)
Language         : Spanish
Default          : No
Forced       : No
Original source medium       : Blu-ray

Text #8
ID           : 15
ID in the original source medium     : 4613 (0x1205)
Format       : PGS
Muxing mode      : zlib
Codec ID         : S_HDMV/PGS
Codec ID/Info        : Picture based subtitle format used on BDs/HD-DVDs
Duration         : 1 h 33 min
Bit rate         : 38.2 kb/s
Count of elements        : 2090
Stream size      : 25.5 MiB (0%)
Language         : Dutch
Default          : No
Forced       : No
Original source medium       : Blu-ray

Text #9
ID           : 16
ID in the original source medium     : 4614 (0x1206)
Format       : PGS
Muxing mode      : zlib
Codec ID         : S_HDMV/PGS
Codec ID/Info        : Picture based subtitle format used on BDs/HD-DVDs
Duration         : 1 h 33 min
Bit rate         : 31.4 kb/s
Count of elements        : 2042
Stream size      : 20.9 MiB (0%)
Language         : Danish
Default          : No
Forced       : No
Original source medium       : Blu-ray

Text #10
ID           : 17
ID in the original source medium     : 4615 (0x1207)
Format       : PGS
Muxing mode      : zlib
Codec ID         : S_HDMV/PGS
Codec ID/Info        : Picture based subtitle format used on BDs/HD-DVDs
Duration         : 1 h 33 min
Bit rate         : 31.3 kb/s
Count of elements        : 2047
Stream size      : 20.9 MiB (0%)
Language         : Finnish
Default          : No
Forced       : No
Original source medium       : Blu-ray

Text #11
ID           : 18
ID in the original source medium     : 4616 (0x1208)
Format       : PGS
Muxing mode      : zlib
Codec ID         : S_HDMV/PGS
Codec ID/Info        : Picture based subtitle format used on BDs/HD-DVDs
Duration         : 1 h 33 min
Bit rate         : 23.0 kb/s
Count of elements        : 2094
Stream size      : 15.3 MiB (0%)
Language         : Korean
Default          : No
Forced       : No
Original source medium       : Blu-ray

Text #12
ID           : 19
ID in the original source medium     : 4617 (0x1209)
Format       : PGS
Muxing mode      : zlib
Codec ID         : S_HDMV/PGS
Codec ID/Info        : Picture based subtitle format used on BDs/HD-DVDs
Duration         : 1 h 33 min
Bit rate         : 31.6 kb/s
Count of elements        : 1998
Stream size      : 21.1 MiB (0%)
Language         : Norwegian
Default          : No
Forced       : No
Original source medium       : Blu-ray

Text #13
ID           : 20
ID in the original source medium     : 4618 (0x120A)
Format       : PGS
Muxing mode      : zlib
Codec ID         : S_HDMV/PGS
Codec ID/Info        : Picture based subtitle format used on BDs/HD-DVDs
Duration         : 1 h 33 min
Bit rate         : 30.7 kb/s
Count of elements        : 2042
Stream size      : 20.5 MiB (0%)
Language         : Swedish
Default          : No
Forced       : No
Original source medium       : Blu-ray

Text #14
ID           : 21
ID in the original source medium     : 4619 (0x120B)
Format       : PGS
Muxing mode      : zlib
Codec ID         : S_HDMV/PGS
Codec ID/Info        : Picture based subtitle format used on BDs/HD-DVDs
Duration         : 1 h 33 min
Bit rate         : 28.6 kb/s
Count of elements        : 2112
Stream size      : 19.1 MiB (0%)
Language         : Chinese
Default          : No
Forced       : No
Original source medium       : Blu-ray

Text #15
ID           : 22
ID in the original source medium     : 4620 (0x120C)
Format       : PGS
Muxing mode      : zlib
Codec ID         : S_HDMV/PGS
Codec ID/Info        : Picture based subtitle format used on BDs/HD-DVDs
Duration         : 1 h 33 min
Bit rate         : 83.4 kb/s
Count of elements        : 3243
Stream size      : 55.7 MiB (0%)
Language         : English
Default          : No
Forced       : No
Original source medium       : Blu-ray

Text #16
ID           : 23
ID in the original source medium     : 4621 (0x120D)
Format       : PGS
Muxing mode      : zlib
Codec ID         : S_HDMV/PGS
Codec ID/Info        : Picture based subtitle format used on BDs/HD-DVDs
Duration         : 1 h 31 min
Bit rate         : 860 b/s
Count of elements        : 69
Stream size      : 578 KiB (0%)
Language         : French
Default          : No
Forced       : No
Original source medium       : Blu-ray

Text #17
ID           : 24
ID in the original source medium     : 4622 (0x120E)
Format       : PGS
Muxing mode      : zlib
Codec ID         : S_HDMV/PGS
Codec ID/Info        : Picture based subtitle format used on BDs/HD-DVDs
Duration         : 1 h 31 min
Bit rate         : 844 b/s
Count of elements        : 66
Stream size      : 567 KiB (0%)
Language         : Italian
Default          : No
Forced       : No
Original source medium       : Blu-ray

Text #18
ID           : 25
ID in the original source medium     : 4623 (0x120F)
Format       : PGS
Muxing mode      : zlib
Codec ID         : S_HDMV/PGS
Codec ID/Info        : Picture based subtitle format used on BDs/HD-DVDs
Duration         : 1 h 31 min
Bit rate         : 985 b/s
Count of elements        : 70
Stream size      : 662 KiB (0%)
Language         : German
Default          : No
Forced       : No
Original source medium       : Blu-ray

Text #19
ID           : 26
ID in the original source medium     : 4624 (0x1210)
Format       : PGS
Muxing mode      : zlib
Codec ID         : S_HDMV/PGS
Codec ID/Info        : Picture based subtitle format used on BDs/HD-DVDs
Duration         : 1 h 31 min
Bit rate         : 909 b/s
Count of elements        : 64
Stream size      : 611 KiB (0%)
Language         : Spanish
Default          : No
Forced       : No
Original source medium       : Blu-ray

Text #20
ID           : 27
ID in the original source medium     : 4625 (0x1211)
Format       : PGS
Muxing mode      : zlib
Codec ID         : S_HDMV/PGS
Codec ID/Info        : Picture based subtitle format used on BDs/HD-DVDs
Duration         : 1 h 33 min
Bit rate         : 24.9 kb/s
Count of elements        : 2227
Stream size      : 16.6 MiB (0%)
Language         : Chinese
Default          : No
Forced       : No
Original source medium       : Blu-ray

Text #21
ID           : 28
ID in the original source medium     : 4626 (0x1212)
Format       : PGS
Muxing mode      : zlib
Codec ID         : S_HDMV/PGS
Codec ID/Info        : Picture based subtitle format used on BDs/HD-DVDs
Duration         : 1 h 33 min
Bit rate         : 47.4 kb/s
Count of elements        : 2227
Stream size      : 31.6 MiB (0%)
Language         : Chinese
Default          : No
Forced       : No
Original source medium       : Blu-ray

Text #22
ID           : 29
ID in the original source medium     : 4627 (0x1213)
Format       : PGS
Muxing mode      : zlib
Codec ID         : S_HDMV/PGS
Codec ID/Info        : Picture based subtitle format used on BDs/HD-DVDs
Duration         : 1 h 33 min
Bit rate         : 47.9 kb/s
Count of elements        : 2227
Stream size      : 31.9 MiB (0%)
Language         : Chinese
Default          : No
Forced       : No
Original source medium       : Blu-ray

Menu
00:00:00.000         : en:Chapter 01
00:06:15.041         : en:Chapter 02
00:11:32.858         : en:Chapter 03
00:16:23.315         : en:Chapter 04
00:20:15.339         : en:Chapter 05
00:23:43.213         : en:Chapter 06
00:28:31.000         : en:Chapter 07
00:34:06.544         : en:Chapter 08
00:38:49.452         : en:Chapter 09
00:42:14.949         : en:Chapter 10
00:49:59.162         : en:Chapter 11
00:56:39.854         : en:Chapter 12
01:01:14.796         : en:Chapter 13
01:08:32.441         : en:Chapter 14
01:13:28.237         : en:Chapter 15
01:18:03.720         : en:Chapter 16
01:25:55.400         : en:Chapter 17
01:30:42.645         : en:Chapter 18



悠悠MP4_MP4电影下载_猜火车 Trainspotting.1996.1080p.BluRay.REMUX.AVC.DTS-HD.MA.5.1-FGT 25.71 GB
悠悠MP4_MP4电影下载_猜火车 Trainspotting.1996.1080p.BluRay.REMUX.AVC.DTS-HD.MA.5.1-FGT 25.71 GB
悠悠MP4_MP4电影下载_猜火车 Trainspotting.1996.1080p.BluRay.REMUX.AVC.DTS-HD.MA.5.1-FGT 25.71 GB

磁力链接

magnet:?xt=urn:btih:9c60341174d9f8a9c051449884eb1a11844d9a81

上传的附件:
最新回复 (0)
返回
本站所有资源均收集自互联网,没有提供影片资源存储, 也未参与录制、上传,若本站收录的资源无意侵犯了您的权益, 请联系邮箱:gogoimgs#gmail.com(#=@)