[更早] [日本] [其他] [x265-1080P] 缅甸的竖琴 The.Burmese.Harp.1956.JAPANESE.1080p.BluRay.x265-VXT 1.81 GB

uump4 1月前

悠悠MP4_MP4电影下载_缅甸的竖琴 The.Burmese.Harp.1956.JAPANESE.1080p.BluRay.x265-VXT 1.81 GB

◎片  名 缅甸的竖琴 ビルマの竪琴 / 缅甸竖琴 / The Burmese Harp / Biruma no tategoto
◎年  代 1956
◎产  地 日本
◎类  别 剧情 / 音乐 / 战争
◎语  言 日语 / 英语
◎上映日期 1956-01-21(日本)
◎IMDb评分  8.0/10 from 5879 users
◎IMDb链接  https://www.imdb.com/title/tt0049012/
◎豆瓣评分 7.9/10 from 1955 users
◎豆瓣链接 https://movie.douban.com/subject/1303090/
◎片  长 116分钟
◎导  演 市川昆 Kon Ichikawa
◎编  剧 和田夏十 Natto Wada
       竹山道雄 Michio Takeyama
◎主  演 三国连太郎 Rentarô Mikuni
       西村晃 Kô Nishimura
       内藤武敏 Taketoshi Naitô
       中村荣二 Eiji Nakamura
       安井昌二 Shôji Yasui
       森塚敏 Bin Moritsuka
       三桥达也 Tatsuya Mihashi
       泽村国太郎 Kunitaro Sawamura
       成濑昌彦 Masahiko Naruse
       青木富夫 Tomio Aoki
       深江章喜 Akiyoshi Fukae
       北林谷荣 Tanie Kitabayashi
       春日俊二 Shunji Kasuga
       伊藤雄之助 Yûnosuke Itô
       佐野浅夫 Asao Sano
       浜村淳 Jun Hamamura

◎简  介

  1945年7月,东南亚的战事接近尾声,一队日本士兵行进在撤往泰国的途中。上等兵水岛(安井昌二 饰)在音乐学院出身的队长指挥下,用自学来的竖琴鼓舞士气,抚慰战士忧伤的思绪,后更以音乐为媒介,同接受他们投降的英国士兵达成了心灵上的沟通。水岛接到任务,去劝降一队负隅顽抗的日 本士兵,然而那些战士拒绝接受天皇的命令,最终全部战死,侥幸存活的水岛被一名缅甸老僧所救,他偷走了对方的僧衣,在前往战俘营的路上掩埋日军尸体,到达战俘营的水岛目睹英国人为战友举行的葬礼,若有所悟,于是赶回来路,去埋葬那些因为自己畏惧而弃之不顾的同胞遗骸。水岛的战友们相方设法打探他的下落,最后被水岛告知,自己还有没完成的责任……                                    
      本片获1956年《电影旬报》年度十佳第五位、威尼斯电影节圣乔治奖。

◎获奖情况

  第29届奥斯卡金像奖 (1957)
  最佳外语片(提名)
  高木雅行

  第17届威尼斯电影节 (1956)
  主竞赛单元 金狮奖 (提名)
  市川昆



Video
ID           : 1
Format       : HEVC
Format/Info      : High Efficiency Video Coding
Format profile       : Main 10@L4@Main
Codec ID         : hev1
Codec ID/Info        : High Efficiency Video Coding
Duration         : 1 h 56 min
Bit rate         : 2 001 kb/s
Width        : 1 444 pixels
Height       : 1 078 pixels
Display aspect ratio     : 4:3
Frame rate mode      : Constant
Frame rate       : 23.976 (24000/1001) FPS
Color space      : YUV
Chroma subsampling       : 4:2:0
Bit depth        : 10 bits
Bits/(Pixel*Frame)       : 0.054
Stream size      : 1.62 GiB (90%)
Writing library      : x265 3.3+4-rarbg-30eb4de83092:[Linux][GCC 8.3.1][64 bit] 10bit
Encoding settings        : cpuid=1111039 / frame-threads=4 / wpp / no-pmode / no-pme / no-psnr / no-ssim / log-level=2 / input-csp=1 / input-res=1444x1078 / interlace=0 / total-frames=0 / level-idc=0 / high-tier=1 / uhd-bd=0 / ref=4 / no-allow-non-conformance / no-repeat-headers / annexb / no-aud / no-hrd / info / hash=0 / no-temporal-layers / open-gop / min-keyint=23 / keyint=250 / gop-lookahead=0 / bframes=4 / b-adapt=2 / b-pyramid / bframe-bias=0 / rc-lookahead=25 / lookahead-slices=4 / scenecut=40 / hist-scenecut=0 / radl=0 / no-splice / no-intra-refresh / ctu=64 / min-cu-size=8 / rect / no-amp / max-tu-size=32 / tu-inter-depth=1 / tu-intra-depth=1 / limit-tu=0 / rdoq-level=2 / dynamic-rd=0.00 / no-ssim-rd / signhide / no-tskip / nr-intra=0 / nr-inter=0 / no-constrained-intra / strong-intra-smoothing / max-merge=3 / limit-refs=3 / limit-modes / me=3 / subme=3 / merange=57 / temporal-mvp / no-frame-dup / no-hme / weightp / no-weightb / no-analyze-src-pics / deblock=0:0 / no-sao / no-sao-non-deblock / rd=4 / selective-sao=0 / no-early-skip / rskip / no-fast-intra / no-tskip-fast / no-cu-lossless / no-b-intra / no-splitrd-skip / rdpenalty=0 / psy-rd=2.00 / psy-rdoq=1.00 / no-rd-refine / no-lossless / cbqpoffs=0 / crqpoffs=0 / rc=abr / bitrate=2000 / qcomp=0.60 / qpstep=4 / stats-write=0 / stats-read=2 / cplxblur=20.0 / qblur=0.5 / ipratio=1.40 / pbratio=1.30 / aq-mode=3 / aq-strength=1.00 / cutree / zone-count=0 / no-strict-cbr / qg-size=32 / no-rc-grain / qpmax=69 / qpmin=0 / no-const-vbv / sar=1 / overscan=0 / videoformat=5 / range=0 / colorprim=2 / transfer=2 / colormatrix=2 / chromaloc=0 / display-window=0 / cll=0,0 / min-luma=0 / max-luma=1023 / log2-max-poc-lsb=8 / vui-timing-info / vui-hrd-info / slices=1 / no-opt-qp-pps / no-opt-ref-list-length-pps / no-multi-pass-opt-rps / scenecut-bias=0.05 / hist-threshold=0.01 / no-opt-cu-delta-qp / no-aq-motion / no-hdr10 / no-hdr10-opt / no-dhdr10-opt / no-idr-recovery-sei / analysis-reuse-level=0 / analysis-save-reuse-level=0 / analysis-load-reuse-level=0 / scale-factor=0 / refine-intra=0 / refine-inter=0 / refine-mv=1 / refine-ctu-distortion=0 / no-limit-sao / ctu-info=0 / no-lowpass-dct / refine-analysis-type=0 / copy-pic=1 / max-ausize-factor=1.0 / no-dynamic-refine / no-single-sei / no-hevc-aq / no-svt / no-field / qp-adaptation-range=1.00 / no-scenecut-aware-qpconformance-window-offsets / right=0 / bottom=0
Encoded date         : UTC 2022-05-18 03:59:48
Tagged date      : UTC 2022-05-18 03:59:48
Codec configuration box      : hvcC

Audio
ID           : 2
Format       : AAC LC
Format/Info      : Advanced Audio Codec Low Complexity
Codec ID         : mp4a-40-2
Duration         : 1 h 56 min
Bit rate mode        : Constant
Bit rate         : 224 kb/s
Channel(s)       : 2 channels
Channel layout       : L R
Sampling rate        : 48.0 kHz
Frame rate       : 46.875 FPS (1024 SPF)
Compression mode     : Lossy
Stream size      : 186 MiB (10%)
Language         : Japanese
Default          : Yes
Alternate group      : 1
Encoded date         : UTC 2022-05-18 03:59:48
Tagged date      : UTC 2022-05-18 03:59:48



悠悠MP4_MP4电影下载_缅甸的竖琴 The.Burmese.Harp.1956.JAPANESE.1080p.BluRay.x265-VXT 1.81 GB
悠悠MP4_MP4电影下载_缅甸的竖琴 The.Burmese.Harp.1956.JAPANESE.1080p.BluRay.x265-VXT 1.81 GB
悠悠MP4_MP4电影下载_缅甸的竖琴 The.Burmese.Harp.1956.JAPANESE.1080p.BluRay.x265-VXT 1.81 GB

磁力链接

magnet:?xt=urn:btih:c18ebe5340ca282e33a248245e8b0b4ad7612113

上传的附件:
最新回复 (0)
返回
本站所有资源均收集自互联网,没有提供影片资源存储, 也未参与录制、上传,若本站收录的资源无意侵犯了您的权益, 请联系邮箱:gogoimgs#gmail.com(#=@)