[更早] [日本] [爱情] [x265-1080P] 近松物语 A.Story.from.Chikamatsu.1954.JAPANESE.1080p.BluRay.x265-VXT 1.60 GB

uump4 1月前

悠悠MP4_MP4电影下载_近松物语 A.Story.from.Chikamatsu.1954.JAPANESE.1080p.BluRay.x265-VXT 1.60 GB

◎片  名 近松物语 近松物語 / The Crucified Lovers / A Story from Chikamatsu
◎年  代 1954
◎产  地 日本
◎类  别 剧情 / 爱情
◎语  言 日语
◎上映日期 1954-11-23
◎IMDb评分  8.0/10 from 4397 users
◎IMDb链接  https://www.imdb.com/title/tt0046851/
◎豆瓣评分 8.3/10 from 4310 users
◎豆瓣链接 https://movie.douban.com/subject/1303600/
◎片  长 102 分钟
◎导  演 沟口健二 Kenji Mizoguchi
◎编  剧 川口松太郎 Matsutarô Kawaguchi
       依田义贤 Yoshikata Yoda
       近松门左卫门 Chikamatsu Monzaemon
◎主  演 长谷川一夫 Kazuo Hasegawa
       香川京子 Kyôko Kagawa
       进藤英太郎 Eitarô Shindô
       小泽荣太郎 Eitarô Ozawa
       南田洋子 Yôko Minamida
       田中春男 Haruo Tanaka
       浪花千荣子 Chieko Naniwa
       菅井一郎 Ichirô Sugai
       十朱久雄 Hisao Toake
       石黑达也 Tatsuya Ishiguro

◎简  介

  专责编写装裱佛经的大经师经宫廷批准向有独自经营权,身份虽为商人,却获准配刀冠姓,地位显赫,财源滚滚。大经师以春(进藤英太郎 饰)为人悭吝,不拔一毛,对待妻子(香川京子 饰)娘家尤其吝啬。另一方面以春却爱慕下女阿玉(南田洋子 饰),图谋不轨。阿玉被逼无奈,谎称已同画师茂兵卫(长谷川一夫 饰)定下婚约。                                    
      大经师夫人的哥哥资金周转遇到难处,姐夫亦不肯相助,夫人分外为难。关键时刻,茂兵卫四处筹钱,出手相助。反因此惹来以春猜疑……                                    
      本片荣获1955年蓝丝带最佳导演奖。

◎获奖情况

  第8届戛纳电影节 (1955)
  主竞赛单元 金棕榈奖(提名)
  沟口健二



Video
ID           : 1
Format       : HEVC
Format/Info      : High Efficiency Video Coding
Format profile       : Main 10@L4@Main
Codec ID         : hev1
Codec ID/Info        : High Efficiency Video Coding
Duration         : 1 h 42 min
Bit rate         : 2 001 kb/s
Width        : 1 468 pixels
Height       : 1 080 pixels
Display aspect ratio     : 4:3
Frame rate mode      : Constant
Frame rate       : 23.976 (24000/1001) FPS
Color space      : YUV
Chroma subsampling       : 4:2:0
Bit depth        : 10 bits
Bits/(Pixel*Frame)       : 0.053
Stream size      : 1.43 GiB (90%)
Writing library      : x265 3.3+4-rarbg-30eb4de83092:[Linux][GCC 8.3.1][64 bit] 10bit
Encoding settings        : cpuid=1111039 / frame-threads=4 / wpp / no-pmode / no-pme / no-psnr / no-ssim / log-level=2 / input-csp=1 / input-res=1468x1080 / interlace=0 / total-frames=0 / level-idc=0 / high-tier=1 / uhd-bd=0 / ref=4 / no-allow-non-conformance / no-repeat-headers / annexb / no-aud / no-hrd / info / hash=0 / no-temporal-layers / open-gop / min-keyint=23 / keyint=250 / gop-lookahead=0 / bframes=4 / b-adapt=2 / b-pyramid / bframe-bias=0 / rc-lookahead=25 / lookahead-slices=4 / scenecut=40 / hist-scenecut=0 / radl=0 / no-splice / no-intra-refresh / ctu=64 / min-cu-size=8 / rect / no-amp / max-tu-size=32 / tu-inter-depth=1 / tu-intra-depth=1 / limit-tu=0 / rdoq-level=2 / dynamic-rd=0.00 / no-ssim-rd / signhide / no-tskip / nr-intra=0 / nr-inter=0 / no-constrained-intra / strong-intra-smoothing / max-merge=3 / limit-refs=3 / limit-modes / me=3 / subme=3 / merange=57 / temporal-mvp / no-frame-dup / no-hme / weightp / no-weightb / no-analyze-src-pics / deblock=0:0 / no-sao / no-sao-non-deblock / rd=4 / selective-sao=0 / no-early-skip / rskip / no-fast-intra / no-tskip-fast / no-cu-lossless / no-b-intra / no-splitrd-skip / rdpenalty=0 / psy-rd=2.00 / psy-rdoq=1.00 / no-rd-refine / no-lossless / cbqpoffs=0 / crqpoffs=0 / rc=abr / bitrate=2000 / qcomp=0.60 / qpstep=4 / stats-write=0 / stats-read=2 / cplxblur=20.0 / qblur=0.5 / ipratio=1.40 / pbratio=1.30 / aq-mode=3 / aq-strength=1.00 / cutree / zone-count=0 / no-strict-cbr / qg-size=32 / no-rc-grain / qpmax=69 / qpmin=0 / no-const-vbv / sar=1 / overscan=0 / videoformat=5 / range=0 / colorprim=2 / transfer=2 / colormatrix=2 / chromaloc=0 / display-window=0 / cll=0,0 / min-luma=0 / max-luma=1023 / log2-max-poc-lsb=8 / vui-timing-info / vui-hrd-info / slices=1 / no-opt-qp-pps / no-opt-ref-list-length-pps / no-multi-pass-opt-rps / scenecut-bias=0.05 / hist-threshold=0.01 / no-opt-cu-delta-qp / no-aq-motion / no-hdr10 / no-hdr10-opt / no-dhdr10-opt / no-idr-recovery-sei / analysis-reuse-level=0 / analysis-save-reuse-level=0 / analysis-load-reuse-level=0 / scale-factor=0 / refine-intra=0 / refine-inter=0 / refine-mv=1 / refine-ctu-distortion=0 / no-limit-sao / ctu-info=0 / no-lowpass-dct / refine-analysis-type=0 / copy-pic=1 / max-ausize-factor=1.0 / no-dynamic-refine / no-single-sei / no-hevc-aq / no-svt / no-field / qp-adaptation-range=1.00 / no-scenecut-aware-qpconformance-window-offsets / right=0 / bottom=0
Encoded date         : UTC 2022-05-18 03:00:06
Tagged date      : UTC 2022-05-18 03:00:06
Codec configuration box      : hvcC

Audio
ID           : 2
Format       : AAC LC
Format/Info      : Advanced Audio Codec Low Complexity
Codec ID         : mp4a-40-2
Duration         : 1 h 42 min
Bit rate mode        : Constant
Bit rate         : 224 kb/s
Channel(s)       : 1 channel
Channel layout       : C
Sampling rate        : 48.0 kHz
Frame rate       : 46.875 FPS (1024 SPF)
Compression mode     : Lossy
Stream size      : 164 MiB (10%)
Language         : Japanese
Default          : Yes
Alternate group      : 1
Encoded date         : UTC 2022-05-18 03:00:06
Tagged date      : UTC 2022-05-18 03:00:06



悠悠MP4_MP4电影下载_近松物语 A.Story.from.Chikamatsu.1954.JAPANESE.1080p.BluRay.x265-VXT 1.60 GB
悠悠MP4_MP4电影下载_近松物语 A.Story.from.Chikamatsu.1954.JAPANESE.1080p.BluRay.x265-VXT 1.60 GB
悠悠MP4_MP4电影下载_近松物语 A.Story.from.Chikamatsu.1954.JAPANESE.1080p.BluRay.x265-VXT 1.60 GB

磁力链接

magnet:?xt=urn:btih:c49dd1bb844f86ce774b820b19df67d70a4f2cf3

上传的附件:
最新回复 (0)
返回
本站所有资源均收集自互联网,没有提供影片资源存储, 也未参与录制、上传,若本站收录的资源无意侵犯了您的权益, 请联系邮箱:gogoimgs#gmail.com(#=@)