[更早] [日本] [动作] [x265-1080P] 大菩萨岭 The.Sword.of.Doom.1966.JAPANESE.1080p.BluRay.x265-VXT 1.88 GB

uump4 1月前

悠悠MP4_MP4电影下载_大菩萨岭 The.Sword.of.Doom.1966.JAPANESE.1080p.BluRay.x265-VXT 1.88 GB

◎片  名 大菩萨岭 大菩薩峠 / The Sword of Doom
◎年  代 1966
◎产  地 日本
◎类  别 剧情 / 动作
◎语  言 日语
◎上映日期 1966-02-25(日本)
◎IMDb评分  7.9/10 from 10886 users
◎IMDb链接  https://www.imdb.com/title/tt0060277/
◎豆瓣评分 8.6/10 from 11423 users
◎豆瓣链接 https://movie.douban.com/subject/1440164/
◎片  长 120分钟
◎导  演 冈本喜八 Kihachi Okamoto
◎编  剧 桥本忍 Shinobu Hashimoto
       中里介山 Kaizan Nakazato
◎主  演 仲代达矢 Tatsuya Nakadai
       新珠三千代 Michiyo Aratama
       加山雄三 Yûzô Kayama
       内藤洋子 Naito Yoko
       中丸忠雄 Nakamaru Tadao
       佐藤庆 Kei Satô
       西村晃 Kô Nishimura
       中谷一郎 Ichirô Nakatani
       田中邦卫 Kunie Tanaka
       三船敏郎 Toshirô Mifune
       香川良介 Ryôsuke Kagawa
       藤原釜足 Kamatari Fujiwara
       天本英世 Eisei Amamoto
       小川安三 Yasuzô Ogawa
       川口敦子 Atsuko Kawaguchi
       大木正司 Shôji Ôki
       长谷川弘 Hiroshi Hasegawa
       头师孝雄 Takao Zushi
       田中浩 Hiroshi Tanaka
       高松锦之助 Kinnosuke Takamatsu
       佐佐木孝丸 Takamaru Sasaki
       伊吹彻 Tôru Ibuki
       久世龙 Ryû Kuze

◎简  介

  幕末时期,时局动荡,暗流涌动。甲州武士机龙之助(仲代達矢 饰)剑术绝伦,却拥有一颗邪恶阴暗之心。在一次剑术比赛前夕,对手宇津木文之丞(中谷一郎 饰)的妻子阿滨(新珠三千代 饰)恳求他败给丈夫,甚至不惜委身于他。然而在次日的对决中,龙之助仍然以绝对优势杀死文之丞。在此之后 ,他和被休的阿滨离开甲州,浪迹江湖。两年后,他以杀手身份加入新选组,替幕府斩杀反抗义士。在此期间,文之丞弟弟兵马(加山雄三 饰)也来至江户,并拜入剑豪岛田虎之助(三船敏郎 饰)的门下,等待为兄长报仇的良机。宿命的相逢无可避免……                                    
      本片根据中里介山同名原著中“甲源一刀流の巻 - 03 壬生と島原の巻”部分改编。该小说在报纸上连载23年,被称作“世界上最长的历史小说”。



Video
ID           : 1
Format       : HEVC
Format/Info      : High Efficiency Video Coding
Format profile       : Main 10@L4@Main
Codec ID         : hev1
Codec ID/Info        : High Efficiency Video Coding
Duration         : 2 h 0 min
Bit rate         : 2 001 kb/s
Width        : 1 920 pixels
Height       : 816 pixels
Display aspect ratio     : 2.35:1
Frame rate mode      : Constant
Frame rate       : 23.976 (24000/1001) FPS
Color space      : YUV
Chroma subsampling       : 4:2:0
Bit depth        : 10 bits
Bits/(Pixel*Frame)       : 0.053
Stream size      : 1.68 GiB (90%)
Writing library      : x265 3.3+4-rarbg-30eb4de83092:[Linux][GCC 8.3.1][64 bit] 10bit
Encoding settings        : cpuid=1111039 / frame-threads=4 / wpp / no-pmode / no-pme / no-psnr / no-ssim / log-level=2 / input-csp=1 / input-res=1920x816 / interlace=0 / total-frames=0 / level-idc=0 / high-tier=1 / uhd-bd=0 / ref=4 / no-allow-non-conformance / no-repeat-headers / annexb / no-aud / no-hrd / info / hash=0 / no-temporal-layers / open-gop / min-keyint=23 / keyint=250 / gop-lookahead=0 / bframes=4 / b-adapt=2 / b-pyramid / bframe-bias=0 / rc-lookahead=25 / lookahead-slices=4 / scenecut=40 / hist-scenecut=0 / radl=0 / no-splice / no-intra-refresh / ctu=64 / min-cu-size=8 / rect / no-amp / max-tu-size=32 / tu-inter-depth=1 / tu-intra-depth=1 / limit-tu=0 / rdoq-level=2 / dynamic-rd=0.00 / no-ssim-rd / signhide / no-tskip / nr-intra=0 / nr-inter=0 / no-constrained-intra / strong-intra-smoothing / max-merge=3 / limit-refs=3 / limit-modes / me=3 / subme=3 / merange=57 / temporal-mvp / no-frame-dup / no-hme / weightp / no-weightb / no-analyze-src-pics / deblock=0:0 / no-sao / no-sao-non-deblock / rd=4 / selective-sao=0 / no-early-skip / rskip / no-fast-intra / no-tskip-fast / no-cu-lossless / no-b-intra / no-splitrd-skip / rdpenalty=0 / psy-rd=2.00 / psy-rdoq=1.00 / no-rd-refine / no-lossless / cbqpoffs=0 / crqpoffs=0 / rc=abr / bitrate=2000 / qcomp=0.60 / qpstep=4 / stats-write=0 / stats-read=2 / cplxblur=20.0 / qblur=0.5 / ipratio=1.40 / pbratio=1.30 / aq-mode=3 / aq-strength=1.00 / cutree / zone-count=0 / no-strict-cbr / qg-size=32 / no-rc-grain / qpmax=69 / qpmin=0 / no-const-vbv / sar=1 / overscan=0 / videoformat=5 / range=0 / colorprim=2 / transfer=2 / colormatrix=2 / chromaloc=0 / display-window=0 / cll=0,0 / min-luma=0 / max-luma=1023 / log2-max-poc-lsb=8 / vui-timing-info / vui-hrd-info / slices=1 / no-opt-qp-pps / no-opt-ref-list-length-pps / no-multi-pass-opt-rps / scenecut-bias=0.05 / hist-threshold=0.01 / no-opt-cu-delta-qp / no-aq-motion / no-hdr10 / no-hdr10-opt / no-dhdr10-opt / no-idr-recovery-sei / analysis-reuse-level=0 / analysis-save-reuse-level=0 / analysis-load-reuse-level=0 / scale-factor=0 / refine-intra=0 / refine-inter=0 / refine-mv=1 / refine-ctu-distortion=0 / no-limit-sao / ctu-info=0 / no-lowpass-dct / refine-analysis-type=0 / copy-pic=1 / max-ausize-factor=1.0 / no-dynamic-refine / no-single-sei / no-hevc-aq / no-svt / no-field / qp-adaptation-range=1.00 / no-scenecut-aware-qpconformance-window-offsets / right=0 / bottom=0
Encoded date         : UTC 2022-05-18 04:14:40
Tagged date      : UTC 2022-05-18 04:14:40
Codec configuration box      : hvcC

Audio
ID           : 2
Format       : AAC LC
Format/Info      : Advanced Audio Codec Low Complexity
Codec ID         : mp4a-40-2
Duration         : 2 h 0 min
Bit rate mode        : Constant
Bit rate         : 224 kb/s
Channel(s)       : 1 channel
Channel layout       : C
Sampling rate        : 48.0 kHz
Frame rate       : 46.875 FPS (1024 SPF)
Compression mode     : Lossy
Stream size      : 193 MiB (10%)
Language         : Japanese
Default          : Yes
Alternate group      : 1
Encoded date         : UTC 2022-05-18 04:14:40
Tagged date      : UTC 2022-05-18 04:14:40



悠悠MP4_MP4电影下载_大菩萨岭 The.Sword.of.Doom.1966.JAPANESE.1080p.BluRay.x265-VXT 1.88 GB
悠悠MP4_MP4电影下载_大菩萨岭 The.Sword.of.Doom.1966.JAPANESE.1080p.BluRay.x265-VXT 1.88 GB
悠悠MP4_MP4电影下载_大菩萨岭 The.Sword.of.Doom.1966.JAPANESE.1080p.BluRay.x265-VXT 1.88 GB

磁力链接

magnet:?xt=urn:btih:07d35746cc7855890f1472b6a7d1d5f0ddcf7172

上传的附件:
最新回复 (0)
返回
本站所有资源均收集自互联网,没有提供影片资源存储, 也未参与录制、上传,若本站收录的资源无意侵犯了您的权益, 请联系邮箱:gogoimgs#gmail.com(#=@)