[更早] [日本] [动画] [x265-1080P] 大都会 Metropolis.2001.JAPANESE.1080p.BluRay.x265-VXT 1.67 GB

uump4 1月前

悠悠MP4_MP4电影下载_大都会 Metropolis.2001.JAPANESE.1080p.BluRay.x265-VXT 1.67 GB

◎片  名 大都会 メトロポリス / Osamu Tezuka's Metoroporisu / Metoroporisu / Metropolis
◎年  代 2001
◎产  地 日本
◎类  别 科幻 / 动画 / 冒险
◎语  言 英语 / 法语 / 德语 / 意大利语 / 西班牙语 / 日语 / 俄语
◎上映日期 2001-05-26(日本)
◎IMDb评分  7.2/10 from 21338 users
◎IMDb链接  https://www.imdb.com/title/tt0293416/
◎豆瓣评分 8.1/10 from 30921 users
◎豆瓣链接 https://movie.douban.com/subject/1291569/
◎片  长 108 分钟 / 113分钟(日本)
◎导  演 林太郎 Rintaro
◎编  剧 大友克洋 Katsuhiro Ôtomo
       手冢治虫 Osamu Tezuka
       特娅·冯·哈堡 Thea von Harbou
◎主  演 井元由香 Imoto Yuka
       小林希唯 Kobayashi Kei
       冈田浩晖 Kôki Okada
       石田太郎 Tarô Ishida
       富田耕生 Kousei Tomita
       若本规夫 Norio Wakamoto
       泷口顺平 Junpei Takiguchi
       青野武 Takeshi Aono
       池田胜 Masaru Ikeda
       八代骏 Shun Yashiro
       古川登志夫 Toshio Furukawa
       千叶繁 Shigeru Chiba
       江原正士 Masashi Ebara
       土师孝也 Takaya Hashi
       井上伦宏 Inoue Norihiro
       爱河里花子 Rikako Aikawa
       麻生智久 Asou Tomohisa
       天田真人 Amada Masato
       涉谷茂 Shibuya Shigeru
       志村知幸 Tomoyuki Shimura
       杉田智和 Tomokazu Sugita
       铃村健一 Kenichi Suzumura
       园部启一 Keiichi Sonobe
       千叶进步 Susumu Chiba
       肥后诚 Makoto Higo
       小山茉美 Mami Koyama
       皆口裕子 Yûko Minaguchi
       松本梨香 Rica Matsumoto
       隆大介 Daisuke Ryû
       柳濑嵩 Takashi Yanase
       永井豪 Gô Nagai
       本多俊之 Toshiyuki Honda
       鲇贝健 Ken Ayugai

◎简  介

  大都市梅陀宝丽斯,被称之为本时代进步象征的超级摩天大厦正在举行落成典礼。手握本市实权的RED先生(石田太郎 配音)台上演讲正酣,台下一名黑衣青年男子ROCK(冈田浩晖 配音)却在警备重重下公然拔枪杀人,群众一阵哗然骚乱。目睹此事的日本侦探伴俊作,携外甥剑一(小林桂 配音),开始进行全市的追凶调查。但是ROCK被判明只是射杀了机器人,凶手若无其事的离去了。                                    
      梅陀宝丽斯由先进的地上部分和颓败的地下部分构成二重结构的都市体系,在这个城市生存的人类中间,有从高度发达的机器人世界中受益,享受文明技术优越性的人,也有反之被机器人夺走工作无以糊口的人,还有要求让机器人同样享有人权自由的群众团体。随着调查的深入,实施的真相渐渐浮出水面,机器人和人类最终是一起平等生存,还是一起毁灭……                                    
      本片改编自手冢治虫出版于1949年的同名漫画。



Video
ID           : 1
Format       : HEVC
Format/Info      : High Efficiency Video Coding
Format profile       : Main 10@L4@Main
Codec ID         : hev1
Codec ID/Info        : High Efficiency Video Coding
Duration         : 1 h 47 min
Bit rate         : 2 001 kb/s
Width        : 1 818 pixels
Height       : 994 pixels
Display aspect ratio     : 1.85:1
Frame rate mode      : Constant
Frame rate       : 23.976 (24000/1001) FPS
Color space      : YUV
Chroma subsampling       : 4:2:0
Bit depth        : 10 bits
Bits/(Pixel*Frame)       : 0.046
Stream size      : 1.50 GiB (90%)
Writing library      : x265 3.3+4-rarbg-30eb4de83092:[Linux][GCC 8.3.1][64 bit] 10bit
Encoding settings        : cpuid=1111039 / frame-threads=4 / wpp / no-pmode / no-pme / no-psnr / no-ssim / log-level=2 / input-csp=1 / input-res=1818x994 / interlace=0 / total-frames=0 / level-idc=0 / high-tier=1 / uhd-bd=0 / ref=4 / no-allow-non-conformance / no-repeat-headers / annexb / no-aud / no-hrd / info / hash=0 / no-temporal-layers / open-gop / min-keyint=23 / keyint=250 / gop-lookahead=0 / bframes=4 / b-adapt=2 / b-pyramid / bframe-bias=0 / rc-lookahead=25 / lookahead-slices=4 / scenecut=40 / hist-scenecut=0 / radl=0 / no-splice / no-intra-refresh / ctu=64 / min-cu-size=8 / rect / no-amp / max-tu-size=32 / tu-inter-depth=1 / tu-intra-depth=1 / limit-tu=0 / rdoq-level=2 / dynamic-rd=0.00 / no-ssim-rd / signhide / no-tskip / nr-intra=0 / nr-inter=0 / no-constrained-intra / strong-intra-smoothing / max-merge=3 / limit-refs=3 / limit-modes / me=3 / subme=3 / merange=57 / temporal-mvp / no-frame-dup / no-hme / weightp / no-weightb / no-analyze-src-pics / deblock=0:0 / no-sao / no-sao-non-deblock / rd=4 / selective-sao=0 / no-early-skip / rskip / no-fast-intra / no-tskip-fast / no-cu-lossless / no-b-intra / no-splitrd-skip / rdpenalty=0 / psy-rd=2.00 / psy-rdoq=1.00 / no-rd-refine / no-lossless / cbqpoffs=0 / crqpoffs=0 / rc=abr / bitrate=2000 / qcomp=0.60 / qpstep=4 / stats-write=0 / stats-read=2 / cplxblur=20.0 / qblur=0.5 / ipratio=1.40 / pbratio=1.30 / aq-mode=3 / aq-strength=1.00 / cutree / zone-count=0 / no-strict-cbr / qg-size=32 / no-rc-grain / qpmax=69 / qpmin=0 / no-const-vbv / sar=1 / overscan=0 / videoformat=5 / range=0 / colorprim=2 / transfer=2 / colormatrix=2 / chromaloc=0 / display-window=0 / cll=0,0 / min-luma=0 / max-luma=1023 / log2-max-poc-lsb=8 / vui-timing-info / vui-hrd-info / slices=1 / no-opt-qp-pps / no-opt-ref-list-length-pps / no-multi-pass-opt-rps / scenecut-bias=0.05 / hist-threshold=0.01 / no-opt-cu-delta-qp / no-aq-motion / no-hdr10 / no-hdr10-opt / no-dhdr10-opt / no-idr-recovery-sei / analysis-reuse-level=0 / analysis-save-reuse-level=0 / analysis-load-reuse-level=0 / scale-factor=0 / refine-intra=0 / refine-inter=0 / refine-mv=1 / refine-ctu-distortion=0 / no-limit-sao / ctu-info=0 / no-lowpass-dct / refine-analysis-type=0 / copy-pic=1 / max-ausize-factor=1.0 / no-dynamic-refine / no-single-sei / no-hevc-aq / no-svt / no-field / qp-adaptation-range=1.00 / no-scenecut-aware-qpconformance-window-offsets / right=0 / bottom=0
Encoded date         : UTC 2022-05-18 04:55:56
Tagged date      : UTC 2022-05-18 04:55:56
Codec configuration box      : hvcC

Audio
ID           : 2
Format       : AAC LC
Format/Info      : Advanced Audio Codec Low Complexity
Codec ID         : mp4a-40-2
Duration         : 1 h 47 min
Duration_LastFrame       : -1 ms
Bit rate mode        : Constant
Bit rate         : 224 kb/s
Channel(s)       : 6 channels
Channel layout       : C L R Ls Rs LFE
Sampling rate        : 48.0 kHz
Frame rate       : 46.875 FPS (1024 SPF)
Compression mode     : Lossy
Stream size      : 172 MiB (10%)
Language         : Japanese
Default          : Yes
Alternate group      : 1
Encoded date         : UTC 2022-05-18 04:55:56
Tagged date      : UTC 2022-05-18 04:55:56



悠悠MP4_MP4电影下载_大都会 Metropolis.2001.JAPANESE.1080p.BluRay.x265-VXT 1.67 GB
悠悠MP4_MP4电影下载_大都会 Metropolis.2001.JAPANESE.1080p.BluRay.x265-VXT 1.67 GB
悠悠MP4_MP4电影下载_大都会 Metropolis.2001.JAPANESE.1080p.BluRay.x265-VXT 1.67 GB

磁力链接

magnet:?xt=urn:btih:f8a11b34e92c7f60e847e1600d0f6dccfc0f5591

上传的附件:
最新回复 (0)
返回
本站所有资源均收集自互联网,没有提供影片资源存储, 也未参与录制、上传,若本站收录的资源无意侵犯了您的权益, 请联系邮箱:gogoimgs#gmail.com(#=@)