[2008] [欧美] [喜剧] [x265-1080P] 三盲鼠 Three.Blind.Mice.2008.1080p.WEBRip.x265-RARBG 1.47 GB

uump4 1月前

悠悠MP4_MP4电影下载_三盲鼠 Three.Blind.Mice.2008.1080p.WEBRip.x265-RARBG 1.47 GB

◎片  名 三盲鼠 Three Blind Mice / 桃色惊魂
◎年  代 2008
◎产  地 澳大利亚
◎类  别 剧情 / 喜剧
◎语  言 英语
◎上映日期 2009
◎IMDb评分  6.0/10 from 387 users
◎IMDb链接  https://www.imdb.com/title/tt1239388/
◎豆瓣评分 6.3/10 from 153 users
◎豆瓣链接 https://movie.douban.com/subject/3595689/
◎片  长 Canada: 94 分钟(Toronto International Film Festival)
◎导  演 马修·纽顿 Matthew Newton
◎编  剧 马修·纽顿 Matthew Newton
◎主  演 伊文·莱斯利 Ewen Leslie
       托比·施密茨 Toby Schmitz
       马修·纽顿 Matthew Newton
       Tina Bursill Tina Bursill
       布伦丹·考威尔 Brendan Cowell
       阿利克斯·迪米崔德斯 Alex Dimitriades
       Bob Franklin Bob Franklin
       马库斯·格雷厄姆 Marcus Graham
       Jody Kennedy Jody Kennedy
       Eloise Mignon Eloise Mignon
       皮雅·米兰达 Pia Miranda
       巴里·奥托 Barry Otto
       加茜·奥托 Gracie Otto
       克莱顿·华生 Clayton Watson
       杰基·韦佛 Jacki Weaver
       查尔斯‘巴德’汀格维尔 Charles 'Bud' Tingwell

◎简  介

  三个年轻的澳洲皇家海军军官在返回军队服役的前一晚在悉尼呆了一个晚上。萨姆在军队里曾经被虐待过,所以准备趁机当逃兵;迪恩则要急着要跟未婚妻和未来岳父岳母见面;而哈利则只是想大玩特玩一把扑克牌。在这短短一个晚上,他们失去了自己,也失去了彼此—萨姆很爱他的爷爷和妈妈,但是又害怕回去军队后遭到同样的待遇,所以正左右为难;迪恩只想着尽快服完役就回去跟未婚妻结婚,做一个正常人,但却又被过去被上司命令一同虐待萨姆的回忆而深深内疚着。而哈利不但放任自己,原来他在来之前就已经设计陷害了自己上司,然后想着让自己取而代之。这三个关系亲密而又各怀心事的好朋友,最后能否一同克服困难,找回真实的自我,在人生道路上继续前进呢?



Video
ID           : 1
Format       : HEVC
Format/Info      : High Efficiency Video Coding
Format profile       : Main 10@L4@Main
Codec ID         : hev1
Codec ID/Info        : High Efficiency Video Coding
Duration         : 1 h 34 min
Bit rate         : 1 997 kb/s
Width        : 1 920 pixels
Height       : 1 080 pixels
Display aspect ratio     : 16:9
Frame rate mode      : Constant
Frame rate       : 25.000 FPS
Color space      : YUV
Chroma subsampling       : 4:2:0
Bit depth        : 10 bits
Bits/(Pixel*Frame)       : 0.039
Stream size      : 1.32 GiB (90%)
Writing library      : x265 3.3+4-rarbg-30eb4de83092:[Linux][GCC 8.3.1][64 bit] 10bit
Encoding settings        : cpuid=1111039 / frame-threads=4 / wpp / no-pmode / no-pme / no-psnr / no-ssim / log-level=2 / input-csp=1 / input-res=1920x1080 / interlace=0 / total-frames=0 / level-idc=0 / high-tier=1 / uhd-bd=0 / ref=4 / no-allow-non-conformance / no-repeat-headers / annexb / no-aud / no-hrd / info / hash=0 / no-temporal-layers / open-gop / min-keyint=25 / keyint=250 / gop-lookahead=0 / bframes=4 / b-adapt=2 / b-pyramid / bframe-bias=0 / rc-lookahead=25 / lookahead-slices=4 / scenecut=40 / hist-scenecut=0 / radl=0 / no-splice / no-intra-refresh / ctu=64 / min-cu-size=8 / rect / no-amp / max-tu-size=32 / tu-inter-depth=1 / tu-intra-depth=1 / limit-tu=0 / rdoq-level=2 / dynamic-rd=0.00 / no-ssim-rd / signhide / no-tskip / nr-intra=0 / nr-inter=0 / no-constrained-intra / strong-intra-smoothing / max-merge=3 / limit-refs=3 / limit-modes / me=3 / subme=3 / merange=57 / temporal-mvp / no-frame-dup / no-hme / weightp / no-weightb / no-analyze-src-pics / deblock=0:0 / no-sao / no-sao-non-deblock / rd=4 / selective-sao=0 / no-early-skip / rskip / no-fast-intra / no-tskip-fast / no-cu-lossless / no-b-intra / no-splitrd-skip / rdpenalty=0 / psy-rd=2.00 / psy-rdoq=1.00 / no-rd-refine / no-lossless / cbqpoffs=0 / crqpoffs=0 / rc=abr / bitrate=2000 / qcomp=0.60 / qpstep=4 / stats-write=0 / stats-read=2 / cplxblur=20.0 / qblur=0.5 / ipratio=1.40 / pbratio=1.30 / aq-mode=3 / aq-strength=1.00 / cutree / zone-count=0 / no-strict-cbr / qg-size=32 / no-rc-grain / qpmax=69 / qpmin=0 / no-const-vbv / sar=1 / overscan=0 / videoformat=5 / range=0 / colorprim=2 / transfer=2 / colormatrix=2 / chromaloc=0 / display-window=0 / cll=0,0 / min-luma=0 / max-luma=1023 / log2-max-poc-lsb=8 / vui-timing-info / vui-hrd-info / slices=1 / no-opt-qp-pps / no-opt-ref-list-length-pps / no-multi-pass-opt-rps / scenecut-bias=0.05 / hist-threshold=0.01 / no-opt-cu-delta-qp / no-aq-motion / no-hdr10 / no-hdr10-opt / no-dhdr10-opt / no-idr-recovery-sei / analysis-reuse-level=0 / analysis-save-reuse-level=0 / analysis-load-reuse-level=0 / scale-factor=0 / refine-intra=0 / refine-inter=0 / refine-mv=1 / refine-ctu-distortion=0 / no-limit-sao / ctu-info=0 / no-lowpass-dct / refine-analysis-type=0 / copy-pic=1 / max-ausize-factor=1.0 / no-dynamic-refine / no-single-sei / no-hevc-aq / no-svt / no-field / qp-adaptation-range=1.00 / no-scenecut-aware-qpconformance-window-offsets / right=0 / bottom=0
Encoded date         : UTC 2022-05-16 05:41:35
Tagged date      : UTC 2022-05-16 05:41:35
Codec configuration box      : hvcC

Audio
ID           : 2
Format       : AAC LC
Format/Info      : Advanced Audio Codec Low Complexity
Codec ID         : mp4a-40-2
Duration         : 1 h 34 min
Duration_LastFrame       : -11 ms
Bit rate mode        : Constant
Bit rate         : 224 kb/s
Channel(s)       : 2 channels
Channel layout       : L R
Sampling rate        : 48.0 kHz
Frame rate       : 46.875 FPS (1024 SPF)
Compression mode     : Lossy
Stream size      : 152 MiB (10%)
Language         : English
Default          : Yes
Alternate group      : 1
Encoded date         : UTC 2022-05-16 05:41:35
Tagged date      : UTC 2022-05-16 05:41:35



悠悠MP4_MP4电影下载_三盲鼠 Three.Blind.Mice.2008.1080p.WEBRip.x265-RARBG 1.47 GB
悠悠MP4_MP4电影下载_三盲鼠 Three.Blind.Mice.2008.1080p.WEBRip.x265-RARBG 1.47 GB
悠悠MP4_MP4电影下载_三盲鼠 Three.Blind.Mice.2008.1080p.WEBRip.x265-RARBG 1.47 GB

磁力链接

magnet:?xt=urn:btih:465e654d2885814e46622ba2950784e718227894

上传的附件:
最新回复 (0)
返回
本站所有资源均收集自互联网,没有提供影片资源存储, 也未参与录制、上传,若本站收录的资源无意侵犯了您的权益, 请联系邮箱:gogoimgs#gmail.com(#=@)