[更早] [欧美] [恐怖] [x264-720P] 骇人听闻 Outrage.1950.720p.BluRay.x264-USURY 3.29 GB

uump4 3天前 125

悠悠MP4_MP4电影下载_骇人听闻 Outrage.1950.720p.BluRay.x264-USURY 3.29 GB

◎片  名 骇人听闻 Outrage
◎年  代 1950
◎产  地 美国
◎类  别 剧情 / 恐怖 / 犯罪 / 黑色电影
◎语  言 英语
◎上映日期 1950-10-14
◎IMDb评分  6.8/10 from 1424 users
◎IMDb链接  https://www.imdb.com/title/tt0042824/
◎豆瓣评分 6.6/10 from 74 users
◎豆瓣链接 https://movie.douban.com/subject/3162810/
◎片  长 75 分钟
◎导  演 艾达·卢皮诺 Ida Lupino
◎编  剧 科利尔·扬 Collier Young
      马尔文·沃尔德 Malvin Wald
      艾达·卢皮诺 Ida Lupino
◎主  演 玛拉·鲍尔斯 Mala Powers
      托德·安德鲁斯 Tod Andrews
      罗伯特·克拉克 Robert Clarke
      雷蒙德·邦德 Raymond Bond
      Hal March Hal March
      Kenneth Patterson Kenneth Patterson
      杰里·帕里斯 Jerry Paris
      安吉拉·克拉克 Angela Clarke
      罗伊·恩格尔 Roy Engel
      Lovyss Bradley Lovyss Bradley
      哈弥尔顿·坎普 Hamilton Camp
      威廉姆萨勒 William Challee
      特利斯特拉姆·科芬 Tristram Coffin
      Jerry Hausner Jerry Hausner
      Bernie Marcus Bernie Marcus
      Vic Perrin Vic Perrin
      John Pelletti John Pelletti
      Beatrice Warde Beatrice Warde
      James W. Horan James W. Horan
      肯纳G.肯普 Kenner G. Kemp
      Colin Kenny Colin Kenny
      艾达·卢皮诺 Ida Lupino
      特德·奥利弗 Ted Oliver

◎简  介

  A young woman who has just become engaged has her life completely shattered when she is raped while on her way home from work.



Video
ID        : 1
Format       : AVC
Format/Info      : Advanced Video Codec
Format profile      : High@L4.1
Format settings      : CABAC / 11 Ref Frames
Format settings, CABAC    : Yes
Format settings, Reference frames  : 11 frames
Codec ID       : V_MPEG4/ISO/AVC
Duration       : 1 h 14 min
Bit rate       : 5 979 kb/s
Width        : 986 pixels
Height       : 720 pixels
Display aspect ratio     : 4:3
Frame rate mode      : Constant
Frame rate       : 23.976 (24000/1001) FPS
Color space      : YUV
Chroma subsampling     : 4:2:0
Bit depth       : 8 bits
Scan type       : Progressive
Bits/(Pixel*Frame)     : 0.351
Stream size      : 3.13 GiB (95%)
Writing library      : x264 core 164 r3094 bfc87b7
Encoding settings     : cabac=1 / ref=11 / deblock=1:-3:-3 / analyse=0x3:0x133 / me=umh / subme=10 / psy=1 / psy_rd=1.00:0.15 / mixed_ref=1 / me_range=24 / chroma_me=1 / trellis=2 / 8x8dct=1 / cqm=0 / deadzone=21,11 / fast_pskip=1 / chroma_qp_offset=-3 / threads=18 / lookahead_threads=3 / sliced_threads=0 / nr=0 / decimate=1 / interlaced=0 / bluray_compat=0 / constrained_intra=0 / bframes=8 / b_pyramid=2 / b_adapt=2 / b_bias=0 / direct=3 / weightb=1 / open_gop=0 / weightp=2 / keyint=250 / keyint_min=23 / scenecut=40 / intra_refresh=0 / rc_lookahead=60 / rc=crf / mbtree=1 / crf=16.0 / qcomp=0.60 / qpmin=0 / qpmax=69 / qpstep=4 / ip_ratio=1.40 / aq=3:0.50
Language       : English
Default       : Yes
Forced       : No
Color range      : Limited
Matrix coefficients     : BT.709

Audio #1
ID        : 2
Format       : FLAC
Format/Info      : Free Lossless Audio Codec
Codec ID       : A_FLAC
Duration       : 1 h 14 min
Bit rate mode      : Variable
Bit rate       : 216 kb/s
Channel(s)       : 2 channels
Channel layout      : L R
Sampling rate      : 48.0 kHz
Frame rate       : 11.719 FPS (4096 SPF)
Bit depth       : 16 bits
Compression mode     : Lossless
Stream size      : 116 MiB (3%)
Writing library      : libFLAC 1.2.1 (UTC 2007-09-17)
Language       : English
Default       : Yes
Forced       : No

Audio #2
ID        : 3
Format       : AAC LC
Format/Info      : Advanced Audio Codec Low Complexity
Codec ID       : A_AAC-2
Duration       : 1 h 14 min
Bit rate       : 83.9 kb/s
Channel(s)       : 2 channels
Channel layout      : L R
Sampling rate      : 48.0 kHz
Frame rate       : 46.875 FPS (1024 SPF)
Compression mode     : Lossy
Delay relative to video    : 9 ms
Stream size      : 45.0 MiB (1%)
Title        : English Commentary by Alexandra Heller-Nicholas
Language       : English
Default       : No
Forced       : No

Text #1
ID        : 4
Format       : UTF-8
Codec ID       : S_TEXT/UTF8
Codec ID/Info      : UTF-8 Plain Text
Duration       : 1 h 12 min
Bit rate       : 50 b/s
Count of elements     : 948
Stream size      : 26.5 KiB (0%)
Title        : English
Language       : English
Default       : No
Forced       : No

Text #2
ID        : 5
Format       : UTF-8
Codec ID       : S_TEXT/UTF8
Codec ID/Info      : UTF-8 Plain Text
Duration       : 1 h 14 min
Bit rate       : 51 b/s
Count of elements     : 1016
Stream size      : 28.0 KiB (0%)
Title        : English SDH
Language       : English
Default       : No
Forced       : No

Text #3
ID        : 6
Format       : PGS
Muxing mode      : zlib
Codec ID       : S_HDMV/PGS
Codec ID/Info      : Picture based subtitle format used on BDs/HD-DVDs
Duration       : 1 h 14 min
Bit rate       : 12.6 kb/s
Count of elements     : 2032
Stream size      : 6.68 MiB (0%)
Title        : English SDH
Language       : English
Default       : No
Forced       : No

Menu
00:00:00.000      : en:00:00:00.000
00:02:05.334      : en:00:02:05.334
00:14:49.555      : en:00:14:49.555
00:19:21.160      : en:00:19:21.160
00:30:43.133      : en:00:30:43.133
00:45:39.737      : en:00:45:39.737
00:59:55.509      : en:00:59:55.509
01:08:26.019      : en:01:08:26.019


Screenshots:
悠悠MP4_MP4电影下载_骇人听闻 Outrage.1950.720p.BluRay.x264-USURY 3.29 GB
Video...: 986x720 5979kb/s @ crf16.0 23.976fps
Audio1..: English 216kb/s 2ch FLAC
Audio2..: English Commentary by Alexandra Heller-Nicholas
84kb/s 2ch AAC
SRT Subs: English regular/SDH
PGS Subs: English SDH
Size....: 3372.35mb (3536172412bytes)
Runtime.: 1h 14mn
IMDb....: https://www.imdb.com/title/tt0042824

Source Bitrate: 32999kb/s

2           4

磁力链接

magnet:?xt=urn:btih:0e118b8f76a411b4095834f800cc4e2ac2dbe9a8
上传的附件:
最新回复 (0)
返回
本站所有资源均收集自互联网,没有提供影片资源存储, 也未参与录制、上传,若本站收录的资源无意侵犯了您的权益, 请联系邮箱:gogoimgs#gmail.com(#=@)