[更早] [欧美] [悬疑] [x264-720P] 神鬼战将 Hidden.Agenda.2001.720p.BluRay.H264.AAC-RARBG 1.15 GB

uump4 3天前 77

悠悠MP4_MP4电影下载_神鬼战将 Hidden.Agenda.2001.720p.BluRay.H264.AAC-RARBG 1.15 GB

◎片  名 神鬼战将 Hidden Agenda / 秘密杀手
◎年  代 2001
◎产  地 加拿大
◎类  别 动作 / 悬疑 / 惊悚
◎语  言 英语
◎上映日期 2001-07-10
◎IMDb评分  4.5/10 from 1196 users
◎IMDb链接  https://www.imdb.com/title/tt0271543/
◎豆瓣评分 /10 from 0 users
◎豆瓣链接 https://movie.douban.com/subject/1297786/
◎片  长 USA: 94 分钟 / Argentina: 98 分钟
◎导  演 
◎编  剧 
◎主  演 布莱恩·D·怀特 Brian D. Wright
      Stéphane Lefebvre Stéphane Lefebvre
      David McKeown David McKeown
      弗朗西斯·X.麦卡蒂 Francis X. McCarthy
      哈里·斯坦德乔夫斯基 Harry Standjofski
      Michael Scherer Michael Scherer
      马克西姆·罗伊 Maxim Roy
      克里斯蒂安·保罗 Christian Paul
      Brigitte Paquette Brigitte Paquette
      约翰·桑福德·穆尔 John Sanford Moore
      帕特里克·克尔顿 Patrick Kerton
      Jean Frenette Jean Frenette
      杜夫·龙格尔 Dolph Lundgren
      Jeff Hall Jeff Hall
      泰德·惠托尔 Ted Whittall

◎简  介

  杰森普莱斯(杜夫朗格 饰)是个私家侦探,专门提供客户一个全新的身份。当政府机构想要一个人在世上永久消失,甚至会找他帮忙。
 然而所有状况改变了,当杰森最好的朋友,FBI干员桑尼马提斯请他帮忙。他正在逃命,躲避对他下达追杀令的耶利哥集团。耶利哥集团雇用人称面包师的超级杀手来取他性命。桑尼恳求杰森给他一个新身份,好躲避杀手追杀。杰森勉强答应了,然而却还是没办法挽回桑尼的小命。FBI甚至认定杰森就是谋杀桑尼的共犯。
 为了躲避FBI的追缉,杰森远离人群到缅因州靠经营一家小餐馆维生。平静的生活维持不久,一位美丽神秘的女子,芮妮布鲁克丝找上杰森,请他帮她躲避耶利哥集团。原来芮妮之前是耶利哥集团的人,却爱上了桑尼,现在耶利哥集团也要她的命!杰森虽然心存怀疑,还是选择帮忙她,以便追踪杀手。就在杰森快追捕到刺杀者时,FBI的插手让一切都毁了,芮妮也跟著失踪。
 几天后,又有另一个访客找上杰森,这访客不是别人,竟是桑尼!桑尼告诉杰森杀手面包师知道他还活著,正追踪他准备取他的命,而那个杀手不是别人正是芮妮!在追踪芮妮的过程中,杰森发现更惊人的事实:芮妮其实是FBI干员,而人称面包师的杀手其实是双面间谍桑尼!
 杰森到底应该相信谁?是他多年的挚友桑尼?还是他的新爱人芮妮?



Video
ID        : 1
Format       : AVC
Format/Info      : Advanced Video Codec
Format profile      : High@L4.1
Format settings      : CABAC / 4 Ref Frames
Format settings, CABAC    : Yes
Format settings, Reference frames  : 4 frames
Codec ID       : avc1
Codec ID/Info      : Advanced Video Coding
Duration       : 1 h 34 min
Bit rate       : 1 500 kb/s
Width        : 1 280 pixels
Height       : 720 pixels
Display aspect ratio     : 16:9
Frame rate mode      : Constant
Frame rate       : 23.976 (23976/1000) FPS
Color space      : YUV
Chroma subsampling     : 4:2:0
Bit depth       : 8 bits
Scan type       : Progressive
Bits/(Pixel*Frame)     : 0.068
Stream size      : 1 018 MiB (87%)
Writing library      : x264 core 152 r2851M ba24899
Encoding settings     : cabac=1 / ref=4 / deblock=1:-1:-1 / analyse=0x3:0x113 / me=umh / subme=9 / psy=1 / psy_rd=1.00:0.15 / mixed_ref=1 / me_range=24 / chroma_me=1 / trellis=2 / 8x8dct=1 / cqm=0 / deadzone=21,11 / fast_pskip=1 / chroma_qp_offset=-3 / threads=16 / lookahead_threads=4 / sliced_threads=0 / nr=0 / decimate=1 / interlaced=0 / bluray_compat=0 / constrained_intra=0 / bframes=3 / b_pyramid=2 / b_adapt=2 / b_bias=0 / direct=3 / weightb=1 / open_gop=0 / weightp=2 / keyint=250 / keyint_min=25 / scenecut=40 / intra_refresh=0 / rc_lookahead=50 / rc=2pass / mbtree=1 / bitrate=1500 / ratetol=1.0 / qcomp=0.60 / qpmin=0 / qpmax=69 / qpstep=4 / cplxblur=20.0 / qblur=0.5 / vbv_maxrate=31250 / vbv_bufsize=31250 / nal_hrd=none / filler=0 / ip_ratio=1.40 / aq=3:1.00
Encoded date      : UTC 2022-05-14 18:08:32
Tagged date      : UTC 2022-05-14 18:08:32
Codec configuration box    : avcC

Audio
ID        : 2
Format       : AAC LC
Format/Info      : Advanced Audio Codec Low Complexity
Codec ID       : mp4a-40-2
Duration       : 1 h 34 min
Bit rate mode      : Constant
Bit rate       : 224 kb/s
Channel(s)       : 2 channels
Channel layout      : L R
Sampling rate      : 48.0 kHz
Frame rate       : 46.875 FPS (1024 SPF)
Compression mode     : Lossy
Stream size      : 152 MiB (13%)
Language       : English
Default       : Yes
Alternate group      : 1
Encoded date      : UTC 2022-05-14 18:08:32
Tagged date      : UTC 2022-05-14 18:08:32


悠悠MP4_MP4电影下载_神鬼战将 Hidden.Agenda.2001.720p.BluRay.H264.AAC-RARBG 1.15 GB
悠悠MP4_MP4电影下载_神鬼战将 Hidden.Agenda.2001.720p.BluRay.H264.AAC-RARBG 1.15 GB
悠悠MP4_MP4电影下载_神鬼战将 Hidden.Agenda.2001.720p.BluRay.H264.AAC-RARBG 1.15 GB

磁力链接

magnet:?xt=urn:btih:fed50f1b9269767463757731e5c2f7dc5afe75fb
上传的附件:
最新回复 (0)
返回
本站所有资源均收集自互联网,没有提供影片资源存储, 也未参与录制、上传,若本站收录的资源无意侵犯了您的权益, 请联系邮箱:gogoimgs#gmail.com(#=@)