[2020] [中国香港] [纪录] [x264-1080P] 好好拍电影 Keep.Rolling.2020.1080p.BluRay.x264-BiPOLAR 5.28 GB

uump4 3天前 121

悠悠MP4_MP4电影下载_好好拍电影 Keep.Rolling.2020.1080p.BluRay.x264-BiPOLAR 5.28 GB

◎片  名 好好拍电影 好好拍電影 / Keep Rolling
◎年  代 2020
◎产  地 中国香港
◎类  别 纪录片
◎语  言 粤语 / 汉语普通话
◎上映日期 2020-12-03(中国香港) / 2020-10-23(香港国际电影节)
◎IMDb评分  7.6/10 from 175 users
◎IMDb链接  https://www.imdb.com/title/tt14059174/
◎豆瓣评分 8.9/10 from 10039 users
◎豆瓣链接 https://movie.douban.com/subject/35158157/
◎片  长 111分钟
◎导  演 文念中 Lim Chung Man
◎编  剧 
◎主  演 许鞍华 Ann Hui
      徐克 Hark Tsui
      侯孝贤 Hsiao-hsien Hou
      刘德华 Andy Lau
      萧芳芳 Josephine Siao
      张艾嘉 Sylvia Chang
      田壮壮 Zhuangzhuang Tian
      贾樟柯 Zhangke Jia
      尔冬升 Tung-shing Yee
      施南生 Nansun Shi
      李樯 Qiang Li
      李屏宾 Mark Lee Ping Bing
      杜笃之 Du-Che Tu
      刘天兰 Tina Liu
      杨凡 Yonfan
      林嘉欣 Karena Lam
      关锦鹏 Stanley Kwan
      张敏仪 Man-yee Cheung
      严浩 Ho Yim
      陈果 Fruit Chan
      关本良 Pung-Leung Kwan
      汤湘竹 Shiang-Chu Tang
      梁华生 James Leung

◎简  介

  她生于辽宁,长于澳门,受教于香港,在中西文化的夹缝中成长与求索。取得香港大学英文及比较文学专业硕士学位后,她远赴伦敦进修。在那裡,她找到了电影,从此再没停下脚步。
 师承胡金铨,处女作开辟香港电影新浪潮;于商业与艺术、 类型与文艺之间游走,不断探索自己和这座城市的漂泊状态;六夺金像 三斩金马,仍要为投资犯难发愁;从早年获奖无数到跌入谷底,从不放弃忠于创作的机会。
 美术指导文念中首执导筒,回顾许鞍华四十余载光影生涯,零距离捕捉她亲和地道、 急躁论尽的真性情,亦看到她与母亲的感情牵绊。
 对电影和香港始终一片赤诚, 电影伴她活出了人生的圆满。

◎获奖情况

  第40届香港电影金像奖 (2022)
  最佳导演(提名)
  文念中新晋导演(提名)
  文念中



Video
ID        : 1
Format       : AVC
Format/Info      : Advanced Video Codec
Format profile      : High@L4.1
Format settings      : CABAC / 4 Ref Frames
Format settings, CABAC    : Yes
Format settings, Reference frames  : 4 frames
Codec ID       : V_MPEG4/ISO/AVC
Duration       : 1 h 58 min
Bit rate       : 5 744 kb/s
Width        : 1 920 pixels
Height       : 1 080 pixels
Display aspect ratio     : 16:9
Frame rate mode      : Constant
Frame rate       : 23.976 (24000/1001) FPS
Color space      : YUV
Chroma subsampling     : 4:2:0
Bit depth       : 8 bits
Scan type       : Progressive
Bits/(Pixel*Frame)     : 0.116
Stream size      : 4.75 GiB (90%)
Writing library      : x264 core 164 r3094 bfc87b7
Encoding settings     : cabac=1 / ref=4 / deblock=1:-3:-3 / analyse=0x3:0x133 / me=umh / subme=10 / psy=1 / psy_rd=1.00:0.15 / mixed_ref=1 / me_range=24 / chroma_me=1 / trellis=2 / 8x8dct=1 / cqm=0 / deadzone=21,11 / fast_pskip=1 / chroma_qp_offset=-3 / threads=18 / lookahead_threads=3 / sliced_threads=0 / nr=0 / decimate=1 / interlaced=0 / bluray_compat=0 / constrained_intra=0 / bframes=8 / b_pyramid=2 / b_adapt=2 / b_bias=0 / direct=3 / weightb=1 / open_gop=0 / weightp=2 / keyint=250 / keyint_min=23 / scenecut=40 / intra_refresh=0 / rc_lookahead=60 / rc=crf / mbtree=1 / crf=19.0 / qcomp=0.60 / qpmin=0 / qpmax=69 / qpstep=4 / ip_ratio=1.40 / aq=3:0.60
Language       : English
Default       : Yes
Forced       : No

Audio
ID        : 2
Format       : AC-3
Format/Info      : Audio Coding 3
Commercial name      : Dolby Digital
Codec ID       : A_AC3
Duration       : 1 h 58 min
Bit rate mode      : Constant
Bit rate       : 640 kb/s
Channel(s)       : 6 channels
Channel layout      : L R C LFE Ls Rs
Sampling rate      : 48.0 kHz
Frame rate       : 31.250 FPS (1536 SPF)
Compression mode     : Lossy
Stream size      : 541 MiB (10%)
Title        : Cantonese
Language       : Chinese
Service kind      : Complete Main
Default       : Yes
Forced       : No

Text #1
ID        : 3
Format       : UTF-8
Codec ID       : S_TEXT/UTF8
Codec ID/Info      : UTF-8 Plain Text
Duration       : 1 h 52 min
Bit rate       : 68 b/s
Count of elements     : 1413
Stream size      : 56.2 KiB (0%)
Title        : English
Language       : English
Default       : Yes
Forced       : Yes

Text #2
ID        : 4
Format       : PGS
Muxing mode      : zlib
Codec ID       : S_HDMV/PGS
Codec ID/Info      : Picture based subtitle format used on BDs/HD-DVDs
Duration       : 1 h 52 min
Bit rate       : 9 477 b/s
Count of elements     : 2826
Stream size      : 7.64 MiB (0%)
Title        : English
Language       : English
Default       : No
Forced       : No

Menu
00:00:00.000      : en:00:00:00.000
00:19:00.389      : en:00:19:00.389
00:34:18.890      : en:00:34:18.890
00:51:49.356      : en:00:51:49.356
01:11:36.792      : en:01:11:36.792
01:36:48.261      : en:01:36:48.261
01:53:57.247      : en:01:53:57.247


Screenshots:
悠悠MP4_MP4电影下载_好好拍电影 Keep.Rolling.2020.1080p.BluRay.x264-BiPOLAR 5.28 GB
Keep.Rolling.2020.1080p.BluRay.x264-BiPOLAR

Video...: 1920x1080 5744kb/s @ crf19.0 23.976fps
Audio...: Cantonese 640kb/s 6ch AC-3
SRT Subs: English
PGS Subs: English
Size....: 5409.71mb (5672501402bytes)
Runtime.: 1h 58mn
IMDb....: https://www.imdb.com/title/tt14059174

Source Bitrate: 10000kb/s

Bonus on the Boat People BD.

磁力链接

magnet:?xt=urn:btih:a18ad3ca77d7bcbc9946e99404445846497a5b29
上传的附件:
最新回复 (0)
返回
本站所有资源均收集自互联网,没有提供影片资源存储, 也未参与录制、上传,若本站收录的资源无意侵犯了您的权益, 请联系邮箱:gogoimgs#gmail.com(#=@)