[2021] [欧美] [剧情] [x264-1080P] 大学航空炸弹客 Ted.K.2021.1080p.BluRay.x264.DTS-MT 16.32 GB

uump4 3天前 68

悠悠MP4_MP4电影下载_大学航空炸弹客 Ted.K.2021.1080p.BluRay.x264.DTS-MT 16.32 GB

◎片  名 大学航空炸弹客 Ted K
◎年  代 2021
◎产  地 美国
◎类  别 剧情
◎语  言 英语
◎上映日期 2021-03(柏林电影节) / 2022-02-18(美国)
◎IMDb评分  6.0/10 from 2151 users
◎IMDb链接  https://www.imdb.com/title/tt8128276/
◎豆瓣评分 6.0/10 from 381 users
◎豆瓣链接 https://movie.douban.com/subject/35370723/
◎片  长 120分钟
◎导  演 
◎编  剧 
◎主  演 沙尔托·科普雷 Sharlto Copley
       德鲁·鲍威尔 Drew Powell
       特拉维斯·布鲁耶 Travis W Bruyer

◎简  介

  入围第71届柏林电影节全景单元。                                    
      Ted K takes a radical approach to addressing Unabomber Ted Kaczynski’s way of thinking. Using intense images and texts from Kaczynski’s pamphlets, the result is no conventional biopic but a meditative composition – and an emotional exploration of violence.



Video
ID           : 1
Format       : AVC
Format/Info      : Advanced Video Codec
Format profile       : High@L4.1
Format settings      : CABAC / 4 Ref Frames
Format settings, CABAC       : Yes
Format settings, Reference frames    : 4 frames
Codec ID         : V_MPEG4/ISO/AVC
Duration         : 2 h 2 min
Bit rate         : 17.5 Mb/s
Width        : 1 920 pixels
Height       : 962 pixels
Display aspect ratio     : 1.996
Frame rate mode      : Constant
Frame rate       : 23.976 (24000/1001) FPS
Color space      : YUV
Chroma subsampling       : 4:2:0
Bit depth        : 8 bits
Scan type        : Progressive
Bits/(Pixel*Frame)       : 0.395
Stream size      : 15.0 GiB (92%)
Writing library      : x264 core 157 r2938 2b00a84 TnP@MTeam Mod
Encoding settings        : cabac=1 / ref=4 / deblock=1:-3:-3 / analyse=0x3:0x133 / me=umh / subme=10 / psy=1 / psy_rd=1.05:0.00 / mixed_ref=1 / me_range=32 / chroma_me=1 / trellis=2 / 8x8dct=1 / cqm=0 / deadzone=21,11 / fast_pskip=0 / chroma_qp_offset=-2 / threads=12 / lookahead_threads=2 / sliced_threads=0 / nr=0 / decimate=0 / interlaced=0 / bluray_compat=0 / constrained_intra=0 / bframes=8 / b_pyramid=2 / b_adapt=2 / b_bias=0 / direct=3 / weightb=1 / open_gop=0 / weightp=2 / keyint=250 / keyint_min=24 / scenecut=40 / intra_refresh=0 / rc_lookahead=250 / rc=crf / mbtree=0 / crf=16.8 / qcomp=0.60 / qpmin=0 / qpmax=69 / qpstep=4 / vbv_maxrate=62500 / vbv_bufsize=78125 / crf_max=0.0 / nal_hrd=none / filler=0 / ip_ratio=1.30 / pb_ratio=1.20 / aq=3:0.80
Language         : English
Default          : Yes
Forced       : No
Color range      : Limited
Color primaries      : BT.709
Matrix coefficients      : BT.709

Audio
ID           : 2
Format       : DTS
Format/Info      : Digital Theater Systems
Codec ID         : A_DTS
Duration         : 2 h 2 min
Bit rate mode        : Constant
Bit rate         : 1 509 kb/s
Channel(s)       : 6 channels
Channel layout       : C L R Ls Rs LFE
Sampling rate        : 48.0 kHz
Frame rate       : 93.750 FPS (512 SPF)
Bit depth        : 24 bits
Compression mode     : Lossy
Stream size      : 1.29 GiB (8%)
Language         : English
Default          : Yes
Forced       : No

Text #1
ID           : 3
Format       : UTF-8
Codec ID         : S_TEXT/UTF8
Codec ID/Info        : UTF-8 Plain Text
Duration         : 2 h 1 min
Bit rate         : 39 b/s
Count of elements        : 1059
Stream size      : 35.4 KiB (0%)
Language         : English
Default          : Yes
Forced       : No

Text #2
ID           : 4
Format       : UTF-8
Codec ID         : S_TEXT/UTF8
Codec ID/Info        : UTF-8 Plain Text
Duration         : 2 h 2 min
Bit rate         : 44 b/s
Count of elements        : 1299
Stream size      : 40.0 KiB (0%)
Title        : SDH
Language         : English
Default          : No
Forced       : No

Menu
00:00:00.000         : en:Chapter 01
00:17:19.538         : en:Chapter 02
00:35:35.216         : en:Chapter 03
00:53:49.476         : en:Chapter 04
01:10:18.631         : en:Chapter 05
01:29:48.216         : en:Chapter 06
01:43:59.900         : en:Chapter 07
01:59:43.051         : en:Chapter 08



悠悠MP4_MP4电影下载_大学航空炸弹客 Ted.K.2021.1080p.BluRay.x264.DTS-MT 16.32 GB
悠悠MP4_MP4电影下载_大学航空炸弹客 Ted.K.2021.1080p.BluRay.x264.DTS-MT 16.32 GB
悠悠MP4_MP4电影下载_大学航空炸弹客 Ted.K.2021.1080p.BluRay.x264.DTS-MT 16.32 GB

磁力链接

magnet:?xt=urn:btih:a9f1cd2f9b04f32094abd9a67e79c041dcd71776

上传的附件:
最新回复 (0)
返回
本站所有资源均收集自互联网,没有提供影片资源存储, 也未参与录制、上传,若本站收录的资源无意侵犯了您的权益, 请联系邮箱:gogoimgs#gmail.com(#=@)