[2022] [欧美] [动作] [x264-1080P] 新蝙蝠侠 The.Batman.2022.1080p.BluRay.H264.AAC-RARBG 3.36 GB

uump4 1天前 244

悠悠MP4_MP4电影下载_新蝙蝠侠 The.Batman.2022.1080p.BluRay.H264.AAC-RARBG 3.36 GB

◎片  名 新蝙蝠侠 The Batman / 蝙蝠侠(港/台) / 重启版蝙蝠侠
◎年  代 2022
◎产  地 美国
◎类  别 剧情 / 动作 / 悬疑 / 犯罪
◎语  言 英语
◎上映日期 2022-03-18(中国大陆) / 2022-03-01(韩国) / 2022-03-04(美国) / 2022-04-19(美国网络)
◎IMDb评分  8.0/10 from 460395 users
◎IMDb链接  https://www.imdb.com/title/tt1877830/
◎豆瓣评分 7.3/10 from 237260 users
◎豆瓣链接 https://movie.douban.com/subject/6424756/
◎片  长 176分钟
◎导  演 马特·里夫斯 Matt Reeves
◎编  剧 马特·里夫斯 Matt Reeves
       彼得·克莱格 Peter Craig
       比尔·芬格 Bill Finger
       鲍勃·凯恩 Bob Kane
       马特森·汤姆林 Mattson Tomlin
◎主  演 罗伯特·帕丁森 Robert Pattinson
       佐伊·克罗维兹 Zoë Kravitz
       保罗·达诺 Paul Dano
       科林·法瑞尔 Colin Farrell
       杰弗里·怀特 Jeffrey Wright
       安迪·瑟金斯 Andy Serkis
       约翰·特托罗 John Turturro
       彼得·萨斯加德 Peter Sarsgaard
       巴里·基奥恩 Barry Keoghan
       杰米·劳森 Jayme Lawson
       吉尔·佩雷斯-亚伯拉罕 Gil Perez-Abraham
       彼得·麦克唐纳德 Peter McDonald
       康·奥尼尔 Con O'Neill
       亚历克斯·费恩斯 Alex Ferns
       鲁伯特·彭利-琼斯 Rupert Penry-Jones
       科莎·恩格勒 Kosha Engler
       杰宁·哈瑞妮 Janine Harouni
       卢克·罗伯茨 Luke Roberts
       斯特拉·斯托克尔 Stella Stocker
       桑德拉·迪金森 Sandra Dickinson
       杰克·班尼特 Jack Bennett
       约瑟夫·巴德拉玛 Joseph Balderrama
       詹姆斯·伊莱斯 James Eeles
       小利莫尔·马雷特 Leemore Marrett Jr.
       斯图尔特·亚历山大 Stewart Alexander
       马库斯·奥尼卢德 Marcus Onilude
       埃琳娜·沙雷 Elena Saurel
       托德·博伊斯 Todd Boyce
       道格拉斯·罗素 Douglas Russell
       查尔斯·卡维尔 Charles Carver
       马克斯·卡维尔 Max Carver
       马克·基林 Mark Killeen
       洛娜·布朗 Lorna Brown
       埃利奥特·沃伦 Elliot Warren
       小田部阿基 Akie Kotabe
       布隆森·韦伯 Bronson Webb
       阿瑟·李 Arthur Lee
       派瑞 格拉斯普 Parry Glasspool
       娜塔丽·阿明 Nathalie Armin
       何塞‧帕尔马 Jose Palma
       玛吉·巴基尔 Maggie Bakir
       露丝·霍洛克斯 Ruth Horrocks
       贝恩·科拉科 Bern Collaço
       丹尼尔·厄根 Daniel Eghan
       雷切尔·汉德肖 Rachel Handshaw
       爵克·哈迪 Juke Hardy
       奥斯卡·诺瓦克 Oscar Novak
       吉米·斯达 Jimmy Star
       妮可拉·吉恩·马祖尔 Nichola Jean Mazur
       杰伊·利库戈 Jay Lycurgo

◎简  介

  布鲁斯·韦恩(罗伯特·帕丁森 饰)化身蝙蝠侠于哥谭市行侠仗义两年后,罪犯皆闻风丧胆,他也因此深入接触到哥谭市的阴暗面。他潜行于哥谭市腐败的政要名流关系网中,身边仅有的几个值得信赖的盟友——管家阿尔弗雷德·潘尼沃斯(安迪·瑟金斯 饰)与詹姆斯·戈登警长(杰弗里·怀特 饰)。这位独行的“义警侠探”在哥谭市民心中已成为“复仇”二字最当仁不让的代名词。



Video
ID           : 1
Format       : AVC
Format/Info      : Advanced Video Codec
Format profile       : High@L4.1
Format settings      : CABAC / 4 Ref Frames
Format settings, CABAC       : Yes
Format settings, Reference frames    : 4 frames
Codec ID         : avc1
Codec ID/Info        : Advanced Video Coding
Duration         : 2 h 56 min
Bit rate         : 2 500 kb/s
Width        : 1 920 pixels
Height       : 804 pixels
Display aspect ratio     : 2.40:1
Frame rate mode      : Constant
Frame rate       : 23.976 (23976/1000) FPS
Color space      : YUV
Chroma subsampling       : 4:2:0
Bit depth        : 8 bits
Scan type        : Progressive
Bits/(Pixel*Frame)       : 0.068
Stream size      : 3.08 GiB (92%)
Writing library      : x264 core 152 r2851M ba24899
Encoding settings        : cabac=1 / ref=4 / deblock=1:-1:-1 / analyse=0x3:0x113 / me=umh / subme=9 / psy=1 / psy_rd=1.00:0.15 / mixed_ref=1 / me_range=24 / chroma_me=1 / trellis=2 / 8x8dct=1 / cqm=0 / deadzone=21,11 / fast_pskip=1 / chroma_qp_offset=-3 / threads=16 / lookahead_threads=4 / sliced_threads=0 / nr=0 / decimate=1 / interlaced=0 / bluray_compat=0 / constrained_intra=0 / bframes=3 / b_pyramid=2 / b_adapt=2 / b_bias=0 / direct=3 / weightb=1 / open_gop=0 / weightp=2 / keyint=250 / keyint_min=25 / scenecut=40 / intra_refresh=0 / rc_lookahead=50 / rc=2pass / mbtree=1 / bitrate=2500 / ratetol=1.0 / qcomp=0.60 / qpmin=0 / qpmax=69 / qpstep=4 / cplxblur=20.0 / qblur=0.5 / vbv_maxrate=31250 / vbv_bufsize=31250 / nal_hrd=none / filler=0 / ip_ratio=1.40 / aq=3:1.00
Encoded date         : UTC 2022-05-14 12:16:37
Tagged date      : UTC 2022-05-14 12:16:37
Codec configuration box      : avcC

Audio
ID           : 2
Format       : AAC LC
Format/Info      : Advanced Audio Codec Low Complexity
Codec ID         : mp4a-40-2
Duration         : 2 h 56 min
Bit rate mode        : Constant
Bit rate         : 224 kb/s
Channel(s)       : 6 channels
Channel layout       : C L R Ls Rs LFE
Sampling rate        : 48.0 kHz
Frame rate       : 46.875 FPS (1024 SPF)
Compression mode     : Lossy
Stream size      : 282 MiB (8%)
Language         : English
Default          : Yes
Alternate group      : 1
Encoded date         : UTC 2022-05-14 12:16:37
Tagged date      : UTC 2022-05-14 12:16:37



悠悠MP4_MP4电影下载_新蝙蝠侠 The.Batman.2022.1080p.BluRay.H264.AAC-RARBG 3.36 GB
悠悠MP4_MP4电影下载_新蝙蝠侠 The.Batman.2022.1080p.BluRay.H264.AAC-RARBG 3.36 GB
悠悠MP4_MP4电影下载_新蝙蝠侠 The.Batman.2022.1080p.BluRay.H264.AAC-RARBG 3.36 GB

磁力链接

magnet:?xt=urn:btih:18a4abd14725bd7bdca23dbe1ba26fb49efb0b94

上传的附件:
最新回复 (2)
  • 晨风 1天前
    2
    楼主你的高尚情操太让人感动了,楼主辛苦了,好人一生平安!!!
  • 福海 1天前
    3
    楼主辛苦了
返回
本站所有资源均收集自互联网,没有提供影片资源存储, 也未参与录制、上传,若本站收录的资源无意侵犯了您的权益, 请联系邮箱:gogoimgs#gmail.com(#=@)