[2022] [欧美] [动作] [BD-Remux] 新蝙蝠侠 The.Batman.2022.1080p.BluRay.REMUX.AVC.DTS-HD.MA.TrueHD.7.1.Atmos-FGT 40.29 GB

uump4 1天前 59

悠悠MP4_MP4电影下载_新蝙蝠侠 The.Batman.2022.1080p.BluRay.REMUX.AVC.DTS-HD.MA.TrueHD.7.1.Atmos-FGT 40.29 GB

◎片  名 新蝙蝠侠 The Batman / 蝙蝠侠(港/台) / 重启版蝙蝠侠
◎年  代 2022
◎产  地 美国
◎类  别 剧情 / 动作 / 悬疑 / 犯罪
◎语  言 英语
◎上映日期 2022-03-18(中国大陆) / 2022-03-01(韩国) / 2022-03-04(美国) / 2022-04-19(美国网络)
◎IMDb评分  8.0/10 from 462326 users
◎IMDb链接  https://www.imdb.com/title/tt1877830/
◎豆瓣评分 7.3/10 from 237260 users
◎豆瓣链接 https://movie.douban.com/subject/6424756/
◎片  长 176分钟
◎导  演 马特·里夫斯 Matt Reeves
◎编  剧 马特·里夫斯 Matt Reeves
       彼得·克莱格 Peter Craig
       比尔·芬格 Bill Finger
       鲍勃·凯恩 Bob Kane
       马特森·汤姆林 Mattson Tomlin
◎主  演 罗伯特·帕丁森 Robert Pattinson
       佐伊·克罗维兹 Zoë Kravitz
       保罗·达诺 Paul Dano
       科林·法瑞尔 Colin Farrell
       杰弗里·怀特 Jeffrey Wright
       安迪·瑟金斯 Andy Serkis
       约翰·特托罗 John Turturro
       彼得·萨斯加德 Peter Sarsgaard
       巴里·基奥恩 Barry Keoghan
       杰米·劳森 Jayme Lawson
       吉尔·佩雷斯-亚伯拉罕 Gil Perez-Abraham
       彼得·麦克唐纳德 Peter McDonald
       康·奥尼尔 Con O'Neill
       亚历克斯·费恩斯 Alex Ferns
       鲁伯特·彭利-琼斯 Rupert Penry-Jones
       科莎·恩格勒 Kosha Engler
       杰宁·哈瑞妮 Janine Harouni
       卢克·罗伯茨 Luke Roberts
       斯特拉·斯托克尔 Stella Stocker
       桑德拉·迪金森 Sandra Dickinson
       杰克·班尼特 Jack Bennett
       约瑟夫·巴德拉玛 Joseph Balderrama
       詹姆斯·伊莱斯 James Eeles
       小利莫尔·马雷特 Leemore Marrett Jr.
       斯图尔特·亚历山大 Stewart Alexander
       马库斯·奥尼卢德 Marcus Onilude
       埃琳娜·沙雷 Elena Saurel
       托德·博伊斯 Todd Boyce
       道格拉斯·罗素 Douglas Russell
       查尔斯·卡维尔 Charles Carver
       马克斯·卡维尔 Max Carver
       马克·基林 Mark Killeen
       洛娜·布朗 Lorna Brown
       埃利奥特·沃伦 Elliot Warren
       小田部阿基 Akie Kotabe
       布隆森·韦伯 Bronson Webb
       阿瑟·李 Arthur Lee
       派瑞 格拉斯普 Parry Glasspool
       娜塔丽·阿明 Nathalie Armin
       何塞‧帕尔马 Jose Palma
       玛吉·巴基尔 Maggie Bakir
       露丝·霍洛克斯 Ruth Horrocks
       贝恩·科拉科 Bern Collaço
       丹尼尔·厄根 Daniel Eghan
       雷切尔·汉德肖 Rachel Handshaw
       爵克·哈迪 Juke Hardy
       奥斯卡·诺瓦克 Oscar Novak
       吉米·斯达 Jimmy Star
       妮可拉·吉恩·马祖尔 Nichola Jean Mazur
       杰伊·利库戈 Jay Lycurgo

◎简  介

  布鲁斯·韦恩(罗伯特·帕丁森 饰)化身蝙蝠侠于哥谭市行侠仗义两年后,罪犯皆闻风丧胆,他也因此深入接触到哥谭市的阴暗面。他潜行于哥谭市腐败的政要名流关系网中,身边仅有的几个值得信赖的盟友——管家阿尔弗雷德·潘尼沃斯(安迪·瑟金斯 饰)与詹姆斯·戈登警长(杰弗里·怀特 饰)。这位独行的“义警侠探”在哥谭市民心中已成为“复仇”二字最当仁不让的代名词。



Video
ID           : 1
ID in the original source medium     : 4113 (0x1011)
Format       : AVC
Format/Info      : Advanced Video Codec
Format profile       : High@L4.1
Format settings      : CABAC / 2 Ref Frames
Format settings, CABAC       : Yes
Format settings, Reference frames    : 2 frames
Format settings, GOP     : M=1, N=10
Codec ID         : V_MPEG4/ISO/AVC
Duration         : 2 h 56 min
Bit rate mode        : Variable
Bit rate         : 19.9 Mb/s
Width        : 1 920 pixels
Height       : 1 080 pixels
Display aspect ratio     : 16:9
Frame rate mode      : Constant
Frame rate       : 23.976 (24000/1001) FPS
Color space      : YUV
Chroma subsampling       : 4:2:0
Bit depth        : 8 bits
Scan type        : Progressive
Bits/(Pixel*Frame)       : 0.401
Stream size      : 24.5 GiB (61%)
Language         : English
Default          : No
Forced       : No
Original source medium       : Blu-ray

Audio #1
ID           : 2
ID in the original source medium     : 4352 (0x1100)
Format       : MLP FBA 16-ch
Format/Info      : Meridian Lossless Packing FBA with 16-channel presentation
Commercial name      : Dolby TrueHD with Dolby Atmos
Codec ID         : A_TRUEHD
Duration         : 2 h 56 min
Bit rate mode        : Variable
Bit rate         : 3 028 kb/s
Maximum bit rate     : 5 271 kb/s
Channel(s)       : 8 channels
Channel layout       : L R C LFE Ls Rs Lb Rb
Sampling rate        : 48.0 kHz
Frame rate       : 1 200.000 FPS (40 SPF)
Bit depth        : 24 bits
Compression mode     : Lossless
Stream size      : 3.73 GiB (9%)
Title        : TrueHD 7.1 Atmos
Language         : English
Default          : Yes
Forced       : No
Original source medium       : Blu-ray
Number of dynamic objects    : 11
Bed channel count        : 1 channel
Bed channel configuration    : LFE

Audio #2
ID           : 3
Format       : DTS XLL
Format/Info      : Digital Theater Systems
Commercial name      : DTS-HD Master Audio
Codec ID         : A_DTS
Duration         : 2 h 56 min
Bit rate mode        : Variable
Bit rate         : 3 732 kb/s
Channel(s)       : 8 channels
Channel layout       : C L R LFE Lb Rb Lss Rss
Sampling rate        : 48.0 kHz
Frame rate       : 93.750 FPS (512 SPF)
Bit depth        : 24 bits
Compression mode     : Lossless
Stream size      : 4.59 GiB (11%)
Title        : DTS-HD MA 7.1
Language         : English
Default          : No
Forced       : No

Audio #3
ID           : 4
ID in the original source medium     : 4352 (0x1100)
Format       : AC-3
Format/Info      : Audio Coding 3
Commercial name      : Dolby Digital
Format settings      : Dolby Surround EX
Codec ID         : A_AC3
Duration         : 2 h 56 min
Bit rate mode        : Constant
Bit rate         : 448 kb/s
Channel(s)       : 6 channels
Channel layout       : L R C LFE Ls Rs
Sampling rate        : 48.0 kHz
Frame rate       : 31.250 FPS (1536 SPF)
Compression mode     : Lossy
Stream size      : 565 MiB (1%)
Title        : DD 5.1
Language         : English
Service kind         : Complete Main
Default          : No
Forced       : No
Original source medium       : Blu-ray

Audio #4
ID           : 5
ID in the original source medium     : 4353 (0x1101)
Format       : AC-3
Format/Info      : Audio Coding 3
Commercial name      : Dolby Digital
Codec ID         : A_AC3
Duration         : 2 h 56 min
Bit rate mode        : Constant
Bit rate         : 448 kb/s
Channel(s)       : 6 channels
Channel layout       : L R C LFE Ls Rs
Sampling rate        : 48.0 kHz
Frame rate       : 31.250 FPS (1536 SPF)
Compression mode     : Lossy
Stream size      : 565 MiB (1%)
Title        : DD 5.1
Language         : English
Service kind         : Complete Main
Default          : No
Forced       : No
Original source medium       : Blu-ray

Audio #5
ID           : 6
ID in the original source medium     : 4354 (0x1102)
Format       : AC-3
Format/Info      : Audio Coding 3
Commercial name      : Dolby Digital
Codec ID         : A_AC3
Duration         : 2 h 56 min
Bit rate mode        : Constant
Bit rate         : 448 kb/s
Channel(s)       : 6 channels
Channel layout       : L R C LFE Ls Rs
Sampling rate        : 48.0 kHz
Frame rate       : 31.250 FPS (1536 SPF)
Compression mode     : Lossy
Stream size      : 565 MiB (1%)
Title        : DD 5.1
Language         : English
Service kind         : Complete Main
Default          : No
Forced       : No
Original source medium       : Blu-ray

Audio #6
ID           : 7
ID in the original source medium     : 4355 (0x1103)
Format       : DTS XLL
Format/Info      : Digital Theater Systems
Commercial name      : DTS-HD Master Audio
Codec ID         : A_DTS
Duration         : 2 h 56 min
Bit rate mode        : Variable
Bit rate         : 3 638 kb/s
Channel(s)       : 6 channels
Channel layout       : C L R Ls Rs LFE
Sampling rate        : 48.0 kHz
Frame rate       : 93.750 FPS (512 SPF)
Bit depth        : 24 bits
Compression mode     : Lossless
Stream size      : 4.48 GiB (11%)
Title        : DTS-HD ma 5.1
Language         : Italian
Default          : No
Forced       : No
Original source medium       : Blu-ray

Audio #7
ID           : 8
ID in the original source medium     : 4356 (0x1104)
Format       : AC-3
Format/Info      : Audio Coding 3
Commercial name      : Dolby Digital
Codec ID         : A_AC3
Duration         : 2 h 56 min
Bit rate mode        : Constant
Bit rate         : 448 kb/s
Channel(s)       : 6 channels
Channel layout       : L R C LFE Ls Rs
Sampling rate        : 48.0 kHz
Frame rate       : 31.250 FPS (1536 SPF)
Compression mode     : Lossy
Stream size      : 565 MiB (1%)
Title        : DD 5.1
Language         : Spanish
Service kind         : Complete Main
Default          : No
Forced       : No
Original source medium       : Blu-ray

Audio #8
ID           : 9
ID in the original source medium     : 4357 (0x1105)
Format       : AC-3
Format/Info      : Audio Coding 3
Commercial name      : Dolby Digital
Codec ID         : A_AC3
Duration         : 2 h 56 min
Bit rate mode        : Constant
Bit rate         : 448 kb/s
Channel(s)       : 6 channels
Channel layout       : L R C LFE Ls Rs
Sampling rate        : 48.0 kHz
Frame rate       : 31.250 FPS (1536 SPF)
Compression mode     : Lossy
Stream size      : 565 MiB (1%)
Title        : DD 5.1
Language         : Hungarian
Service kind         : Complete Main
Default          : No
Forced       : No
Original source medium       : Blu-ray

Text #1
ID           : 10
Format       : UTF-8
Codec ID         : S_TEXT/UTF8
Codec ID/Info        : UTF-8 Plain Text
Duration         : 2 h 43 min
Bit rate         : 45 b/s
Count of elements        : 1864
Stream size      : 54.2 KiB (0%)
Language         : English
Default          : Yes
Forced       : No

Text #2
ID           : 11
Format       : UTF-8
Codec ID         : S_TEXT/UTF8
Codec ID/Info        : UTF-8 Plain Text
Duration         : 2 h 55 min
Bit rate         : 53 b/s
Count of elements        : 2401
Stream size      : 68.8 KiB (0%)
Title        : SDH
Language         : English
Default          : No
Forced       : No

Text #3
ID           : 12
ID in the original source medium     : 4608 (0x1200)
Format       : PGS
Muxing mode      : zlib
Codec ID         : S_HDMV/PGS
Codec ID/Info        : Picture based subtitle format used on BDs/HD-DVDs
Duration         : 2 h 55 min
Bit rate         : 34.3 kb/s
Count of elements        : 4834
Stream size      : 43.1 MiB (0%)
Language         : English
Default          : No
Forced       : No
Original source medium       : Blu-ray

Text #4
ID           : 13
ID in the original source medium     : 4609 (0x1201)
Format       : PGS
Muxing mode      : zlib
Codec ID         : S_HDMV/PGS
Codec ID/Info        : Picture based subtitle format used on BDs/HD-DVDs
Duration         : 2 h 55 min
Bit rate         : 34.2 kb/s
Count of elements        : 5026
Stream size      : 43.0 MiB (0%)
Language         : Italian
Default          : No
Forced       : No
Original source medium       : Blu-ray

Text #5
ID           : 14
ID in the original source medium     : 4610 (0x1202)
Format       : PGS
Muxing mode      : zlib
Codec ID         : S_HDMV/PGS
Codec ID/Info        : Picture based subtitle format used on BDs/HD-DVDs
Duration         : 2 h 54 min
Bit rate         : 26.0 kb/s
Count of elements        : 3810
Stream size      : 32.3 MiB (0%)
Language         : Spanish
Default          : No
Forced       : No
Original source medium       : Blu-ray

Text #6
ID           : 15
ID in the original source medium     : 4611 (0x1203)
Format       : PGS
Muxing mode      : zlib
Codec ID         : S_HDMV/PGS
Codec ID/Info        : Picture based subtitle format used on BDs/HD-DVDs
Duration         : 2 h 54 min
Bit rate         : 25.1 kb/s
Count of elements        : 3624
Stream size      : 31.3 MiB (0%)
Language         : Chinese
Default          : No
Forced       : No
Original source medium       : Blu-ray

Text #7
ID           : 16
ID in the original source medium     : 4612 (0x1204)
Format       : PGS
Muxing mode      : zlib
Codec ID         : S_HDMV/PGS
Codec ID/Info        : Picture based subtitle format used on BDs/HD-DVDs
Duration         : 2 h 55 min
Bit rate         : 25.3 kb/s
Count of elements        : 3870
Stream size      : 31.9 MiB (0%)
Language         : Chinese
Default          : No
Forced       : No
Original source medium       : Blu-ray

Text #8
ID           : 17
ID in the original source medium     : 4613 (0x1205)
Format       : PGS
Muxing mode      : zlib
Codec ID         : S_HDMV/PGS
Codec ID/Info        : Picture based subtitle format used on BDs/HD-DVDs
Duration         : 2 h 55 min
Bit rate         : 15.4 kb/s
Count of elements        : 3788
Stream size      : 19.3 MiB (0%)
Language         : Korean
Default          : No
Forced       : No
Original source medium       : Blu-ray

Text #9
ID           : 18
ID in the original source medium     : 4614 (0x1206)
Format       : PGS
Muxing mode      : zlib
Codec ID         : S_HDMV/PGS
Codec ID/Info        : Picture based subtitle format used on BDs/HD-DVDs
Duration         : 2 h 55 min
Bit rate         : 25.4 kb/s
Count of elements        : 3836
Stream size      : 32.0 MiB (0%)
Language         : Bulgarian
Default          : No
Forced       : No
Original source medium       : Blu-ray

Text #10
ID           : 19
ID in the original source medium     : 4615 (0x1207)
Format       : PGS
Muxing mode      : zlib
Codec ID         : S_HDMV/PGS
Codec ID/Info        : Picture based subtitle format used on BDs/HD-DVDs
Duration         : 2 h 54 min
Bit rate         : 23.5 kb/s
Count of elements        : 2902
Stream size      : 29.2 MiB (0%)
Language         : Hungarian
Default          : No
Forced       : No
Original source medium       : Blu-ray

Text #11
ID           : 20
ID in the original source medium     : 4616 (0x1208)
Format       : PGS
Muxing mode      : zlib
Codec ID         : S_HDMV/PGS
Codec ID/Info        : Picture based subtitle format used on BDs/HD-DVDs
Duration         : 2 h 54 min
Bit rate         : 26.0 kb/s
Count of elements        : 3556
Stream size      : 32.4 MiB (0%)
Language         : Romanian
Default          : No
Forced       : No
Original source medium       : Blu-ray

Text #12
ID           : 21
ID in the original source medium     : 4617 (0x1209)
Format       : PGS
Muxing mode      : zlib
Codec ID         : S_HDMV/PGS
Codec ID/Info        : Picture based subtitle format used on BDs/HD-DVDs
Duration         : 2 h 50 min
Bit rate         : 1 371 b/s
Count of elements        : 190
Stream size      : 1.67 MiB (0%)
Language         : Italian
Default          : No
Forced       : No
Original source medium       : Blu-ray

Text #13
ID           : 22
ID in the original source medium     : 4618 (0x120A)
Format       : PGS
Muxing mode      : zlib
Codec ID         : S_HDMV/PGS
Codec ID/Info        : Picture based subtitle format used on BDs/HD-DVDs
Duration         : 2 h 47 min
Bit rate         : 1 380 b/s
Count of elements        : 178
Stream size      : 1.65 MiB (0%)
Language         : Spanish
Default          : No
Forced       : No
Original source medium       : Blu-ray

Text #14
ID           : 23
ID in the original source medium     : 4619 (0x120B)
Format       : PGS
Muxing mode      : zlib
Codec ID         : S_HDMV/PGS
Codec ID/Info        : Picture based subtitle format used on BDs/HD-DVDs
Duration         : 2 h 47 min
Bit rate         : 775 b/s
Count of elements        : 114
Stream size      : 951 KiB (0%)
Language         : Hungarian
Default          : No
Forced       : No
Original source medium       : Blu-ray

Menu
00:00:00.000         : en:Chapter 01
00:12:01.220         : en:Chapter 02
00:23:21.650         : en:Chapter 03
00:31:54.078         : en:Chapter 04
00:41:44.502         : en:Chapter 05
00:51:36.676         : en:Chapter 06
01:00:12.900         : en:Chapter 07
01:10:32.394         : en:Chapter 08
01:18:35.085         : en:Chapter 09
01:29:14.474         : en:Chapter 10
01:42:33.063         : en:Chapter 11
01:52:16.896         : en:Chapter 12
01:58:20.927         : en:Chapter 13
02:09:39.605         : en:Chapter 14
02:21:14.382         : en:Chapter 15
02:27:31.342         : en:Chapter 16
02:38:36.089         : en:Chapter 17
02:46:58.675         : en:Chapter 18



悠悠MP4_MP4电影下载_新蝙蝠侠 The.Batman.2022.1080p.BluRay.REMUX.AVC.DTS-HD.MA.TrueHD.7.1.Atmos-FGT 40.29 GB
悠悠MP4_MP4电影下载_新蝙蝠侠 The.Batman.2022.1080p.BluRay.REMUX.AVC.DTS-HD.MA.TrueHD.7.1.Atmos-FGT 40.29 GB
悠悠MP4_MP4电影下载_新蝙蝠侠 The.Batman.2022.1080p.BluRay.REMUX.AVC.DTS-HD.MA.TrueHD.7.1.Atmos-FGT 40.29 GB

磁力链接

magnet:?xt=urn:btih:a42c0cd232d79197c417812226b8860cfc21b4bf

上传的附件:
最新回复 (0)
返回
本站所有资源均收集自互联网,没有提供影片资源存储, 也未参与录制、上传,若本站收录的资源无意侵犯了您的权益, 请联系邮箱:gogoimgs#gmail.com(#=@)