[更早] [日本] [战争] [x265-1080P] 雨月物语 Ugetsu.1953.JAPANESE.REMASTERED.1080p.BluRay.x265-VXT 1.51 GB

uump4 1天前 139

悠悠MP4_MP4电影下载_雨月物语 Ugetsu.1953.JAPANESE.REMASTERED.1080p.BluRay.x265-VXT 1.51 GB

◎片  名 雨月物语 雨月物語 / Ugetsu Monogatari / Tales of Ugetsu / Ugetsu
◎年  代 1953
◎产  地 日本
◎类  别 剧情 / 战争 / 奇幻
◎语  言 日语
◎上映日期 1953-03-26
◎IMDb评分  8.2/10 from 23169 users
◎IMDb链接  https://www.imdb.com/title/tt0046478/
◎豆瓣评分 8.6/10 from 21912 users
◎豆瓣链接 https://movie.douban.com/subject/1303577/
◎片  长 96分钟
◎导  演 沟口健二 Kenji Mizoguchi
◎编  剧 川口松太郎 Matsutarô Kawaguchi
       依田义贤 Yoshikata Yoda
       上田秋成 Akinari Ueda
       辻久一 Hisakazu Tsuji
◎主  演 田中绢代 Kinuyo Tanaka
       森雅之 Masayuki Mori
       小泽荣太郎 Eitarô Ozawa
       水户光子 Mitsuko Mito
       京町子 Machiko Kyô
       毛利菊枝 Kikue Môri
       青山杉作 Sugisaku Aoyama
       香川良介 Ryôsuke Kagawa
       上田吉二郎 Kichijirô Ueda
       伊达三郎 Saburo Date

◎简  介

  战国时代,琵琶湖附近的一个小山村里住着源十郎(森雅之饰)和妻子宫木(田中绢代饰),还有妹夫藤兵卫(小泽荣饰)、妹妹阿滨(水户光子)。他们以开小瓷窑、烧制瓷器为生,战乱中,源十郎想趁着战乱发一笔横财,而藤兵卫则想着成为一名武士,出人头地。                                    
      二人带着烧制好的上好瓷器离开家乡去市镇变卖,果然赚到一大笔钱,源十郎甚至碰上了一位美若天仙的贵族小姐若狭(京町子饰),雨云之欢,乐不思蜀。一天晚归的源十郎被一僧人告知是否遇见什么不干净的东西……。而藤兵卫也如愿以偿地成为了武士,撞大运碰上美事,好不威风,但他居然在寻欢之时遇见了妻子……,骇人的事实摆在了他们的面前。

◎获奖情况

  第28届奥斯卡金像奖 (1956)
  黑白片最佳服装设计(提名)
  甲斐庄忠人

  第14届威尼斯电影节 (1953)
  主竞赛单元 金狮奖 (提名)
  沟口健二银狮奖 最佳影片
  沟口健二帕西内蒂奖 最佳电影
  沟口健二



Video
ID           : 1
Format       : HEVC
Format/Info      : High Efficiency Video Coding
Format profile       : Main 10@L4@Main
Codec ID         : hev1
Codec ID/Info        : High Efficiency Video Coding
Duration         : 1 h 36 min
Bit rate         : 2 001 kb/s
Width        : 1 476 pixels
Height       : 1 080 pixels
Display aspect ratio     : 4:3
Frame rate mode      : Constant
Frame rate       : 23.976 (24000/1001) FPS
Color space      : YUV
Chroma subsampling       : 4:2:0
Bit depth        : 10 bits
Bits/(Pixel*Frame)       : 0.052
Stream size      : 1.35 GiB (90%)
Writing library      : x265 3.3+4-rarbg-30eb4de83092:[Linux][GCC 8.3.1][64 bit] 10bit
Encoding settings        : cpuid=1111039 / frame-threads=4 / wpp / no-pmode / no-pme / no-psnr / no-ssim / log-level=2 / input-csp=1 / input-res=1476x1080 / interlace=0 / total-frames=0 / level-idc=0 / high-tier=1 / uhd-bd=0 / ref=4 / no-allow-non-conformance / no-repeat-headers / annexb / no-aud / no-hrd / info / hash=0 / no-temporal-layers / open-gop / min-keyint=23 / keyint=250 / gop-lookahead=0 / bframes=4 / b-adapt=2 / b-pyramid / bframe-bias=0 / rc-lookahead=25 / lookahead-slices=4 / scenecut=40 / hist-scenecut=0 / radl=0 / no-splice / no-intra-refresh / ctu=64 / min-cu-size=8 / rect / no-amp / max-tu-size=32 / tu-inter-depth=1 / tu-intra-depth=1 / limit-tu=0 / rdoq-level=2 / dynamic-rd=0.00 / no-ssim-rd / signhide / no-tskip / nr-intra=0 / nr-inter=0 / no-constrained-intra / strong-intra-smoothing / max-merge=3 / limit-refs=3 / limit-modes / me=3 / subme=3 / merange=57 / temporal-mvp / no-frame-dup / no-hme / weightp / no-weightb / no-analyze-src-pics / deblock=0:0 / no-sao / no-sao-non-deblock / rd=4 / selective-sao=0 / no-early-skip / rskip / no-fast-intra / no-tskip-fast / no-cu-lossless / no-b-intra / no-splitrd-skip / rdpenalty=0 / psy-rd=2.00 / psy-rdoq=1.00 / no-rd-refine / no-lossless / cbqpoffs=0 / crqpoffs=0 / rc=abr / bitrate=2000 / qcomp=0.60 / qpstep=4 / stats-write=0 / stats-read=2 / cplxblur=20.0 / qblur=0.5 / ipratio=1.40 / pbratio=1.30 / aq-mode=3 / aq-strength=1.00 / cutree / zone-count=0 / no-strict-cbr / qg-size=32 / no-rc-grain / qpmax=69 / qpmin=0 / no-const-vbv / sar=1 / overscan=0 / videoformat=5 / range=0 / colorprim=2 / transfer=2 / colormatrix=2 / chromaloc=0 / display-window=0 / cll=0,0 / min-luma=0 / max-luma=1023 / log2-max-poc-lsb=8 / vui-timing-info / vui-hrd-info / slices=1 / no-opt-qp-pps / no-opt-ref-list-length-pps / no-multi-pass-opt-rps / scenecut-bias=0.05 / hist-threshold=0.01 / no-opt-cu-delta-qp / no-aq-motion / no-hdr10 / no-hdr10-opt / no-dhdr10-opt / no-idr-recovery-sei / analysis-reuse-level=0 / analysis-save-reuse-level=0 / analysis-load-reuse-level=0 / scale-factor=0 / refine-intra=0 / refine-inter=0 / refine-mv=1 / refine-ctu-distortion=0 / no-limit-sao / ctu-info=0 / no-lowpass-dct / refine-analysis-type=0 / copy-pic=1 / max-ausize-factor=1.0 / no-dynamic-refine / no-single-sei / no-hevc-aq / no-svt / no-field / qp-adaptation-range=1.00 / no-scenecut-aware-qpconformance-window-offsets / right=0 / bottom=0
Encoded date         : UTC 2022-05-14 11:03:01
Tagged date      : UTC 2022-05-14 11:03:01
Codec configuration box      : hvcC

Audio
ID           : 2
Format       : AAC LC
Format/Info      : Advanced Audio Codec Low Complexity
Codec ID         : mp4a-40-2
Duration         : 1 h 36 min
Bit rate mode        : Constant
Bit rate         : 224 kb/s
Channel(s)       : 1 channel
Channel layout       : C
Sampling rate        : 48.0 kHz
Frame rate       : 46.875 FPS (1024 SPF)
Compression mode     : Lossy
Stream size      : 155 MiB (10%)
Language         : Japanese
Default          : Yes
Alternate group      : 1
Encoded date         : UTC 2022-05-14 11:03:01
Tagged date      : UTC 2022-05-14 11:03:01



悠悠MP4_MP4电影下载_雨月物语 Ugetsu.1953.JAPANESE.REMASTERED.1080p.BluRay.x265-VXT 1.51 GB
悠悠MP4_MP4电影下载_雨月物语 Ugetsu.1953.JAPANESE.REMASTERED.1080p.BluRay.x265-VXT 1.51 GB
悠悠MP4_MP4电影下载_雨月物语 Ugetsu.1953.JAPANESE.REMASTERED.1080p.BluRay.x265-VXT 1.51 GB

磁力链接

magnet:?xt=urn:btih:42e0cd51f90d561696c5311bfb0369bddc196639

上传的附件:
最新回复 (0)
返回
本站所有资源均收集自互联网,没有提供影片资源存储, 也未参与录制、上传,若本站收录的资源无意侵犯了您的权益, 请联系邮箱:gogoimgs#gmail.com(#=@)