[更早] [日本] [剧情] [x265-1080P] 赤线地带 Street.of.Shame.1956.JAPANESE.1080p.BluRay.x265-VXT 1.34 GB

uump4 1天前 113

悠悠MP4_MP4电影下载_赤线地带 Street.of.Shame.1956.JAPANESE.1080p.BluRay.x265-VXT 1.34 GB

◎片  名 赤线地带 赤線地帯 / Akasen chitai / Street of Shame
◎年  代 1956
◎产  地 日本
◎类  别 剧情
◎语  言 日语
◎上映日期 1956-03-18(日本)
◎IMDb评分  7.8/10 from 4361 users
◎IMDb链接  https://www.imdb.com/title/tt0048933/
◎豆瓣评分 8.1/10 from 2179 users
◎豆瓣链接 https://movie.douban.com/subject/1466788/
◎片  长 87 分钟
◎导  演 沟口健二 Kenji Mizoguchi
◎编  剧 
◎主  演 若尾文子 Ayako Wakao
       京町子 Machiko Kyô
       木暮实千代 Michiyo Kogure
       三益爱子 Aiko Mimasu
       菅原谦二 Kenji Sugawara
       进藤英太郎 Eitarô Shindô
       田中春男 Haruo Tanaka
       泽村贞子 Sadako Sawamura
       高堂国典 Kokuten Kôdô
       町田博子 Hiroko Machida
       目黒幸子 Sachiko Meguro
       川上康子 Yasuko Kawakami
       佐原健二 Kenji Sahara
       小川虎之助 Toranosuke Ogawa
       浦边粂子 Kumeko Urabe
       加东大介 Daisuke Katô
       丸山修 Osamu Maruyama

◎简  介

  20世纪50年代中期,日本国会即将推出禁止卖春的法律,这项决议在色情业繁荣的吉原引起巨大震动。                                    
      梦之里,是一家坐落在吉原的色情沙龙,几个有着不同遭遇的女人汇集于此。由里江(町田博子 饰)渴望平凡的主妇生活,但婚姻不顺,使得她往返吉原;花绘(木暮实千代 饰)为了给丈夫治病,照顾年幼的孩子,不得不一次次向路人献出笑脸;梦子(三有益爱子 饰)渴望走出吉原,和儿子住到一起,但儿子却以母亲为耻;阿休(若尾文子 饰)的父亲贪污入狱,需要巨额保释金,这个年轻貌美的女子为了钱财不惜一切代价;米奇(京マチ子 饰)生性叛逆,宁愿沦落风尘,也不想面对虚伪的父亲。这些女子因各种原因涉足烟花,为了遥不可及的幸福奋力挣扎……                                    
      本片为沟口健二遗作,获1956年威尼斯国际电影节金狮奖提名。



Video
ID           : 1
Format       : HEVC
Format/Info      : High Efficiency Video Coding
Format profile       : Main 10@L4@Main
Codec ID         : hev1
Codec ID/Info        : High Efficiency Video Coding
Duration         : 1 h 25 min
Bit rate         : 2 001 kb/s
Width        : 1 476 pixels
Height       : 1 080 pixels
Display aspect ratio     : 4:3
Frame rate mode      : Constant
Frame rate       : 23.976 (24000/1001) FPS
Color space      : YUV
Chroma subsampling       : 4:2:0
Bit depth        : 10 bits
Bits/(Pixel*Frame)       : 0.052
Stream size      : 1.20 GiB (90%)
Writing library      : x265 3.3+4-rarbg-30eb4de83092:[Linux][GCC 8.3.1][64 bit] 10bit
Encoding settings        : cpuid=1111039 / frame-threads=4 / wpp / no-pmode / no-pme / no-psnr / no-ssim / log-level=2 / input-csp=1 / input-res=1476x1080 / interlace=0 / total-frames=0 / level-idc=0 / high-tier=1 / uhd-bd=0 / ref=4 / no-allow-non-conformance / no-repeat-headers / annexb / no-aud / no-hrd / info / hash=0 / no-temporal-layers / open-gop / min-keyint=23 / keyint=250 / gop-lookahead=0 / bframes=4 / b-adapt=2 / b-pyramid / bframe-bias=0 / rc-lookahead=25 / lookahead-slices=4 / scenecut=40 / hist-scenecut=0 / radl=0 / no-splice / no-intra-refresh / ctu=64 / min-cu-size=8 / rect / no-amp / max-tu-size=32 / tu-inter-depth=1 / tu-intra-depth=1 / limit-tu=0 / rdoq-level=2 / dynamic-rd=0.00 / no-ssim-rd / signhide / no-tskip / nr-intra=0 / nr-inter=0 / no-constrained-intra / strong-intra-smoothing / max-merge=3 / limit-refs=3 / limit-modes / me=3 / subme=3 / merange=57 / temporal-mvp / no-frame-dup / no-hme / weightp / no-weightb / no-analyze-src-pics / deblock=0:0 / no-sao / no-sao-non-deblock / rd=4 / selective-sao=0 / no-early-skip / rskip / no-fast-intra / no-tskip-fast / no-cu-lossless / no-b-intra / no-splitrd-skip / rdpenalty=0 / psy-rd=2.00 / psy-rdoq=1.00 / no-rd-refine / no-lossless / cbqpoffs=0 / crqpoffs=0 / rc=abr / bitrate=2000 / qcomp=0.60 / qpstep=4 / stats-write=0 / stats-read=2 / cplxblur=20.0 / qblur=0.5 / ipratio=1.40 / pbratio=1.30 / aq-mode=3 / aq-strength=1.00 / cutree / zone-count=0 / no-strict-cbr / qg-size=32 / no-rc-grain / qpmax=69 / qpmin=0 / no-const-vbv / sar=1 / overscan=0 / videoformat=5 / range=0 / colorprim=2 / transfer=2 / colormatrix=2 / chromaloc=0 / display-window=0 / cll=0,0 / min-luma=0 / max-luma=1023 / log2-max-poc-lsb=8 / vui-timing-info / vui-hrd-info / slices=1 / no-opt-qp-pps / no-opt-ref-list-length-pps / no-multi-pass-opt-rps / scenecut-bias=0.05 / hist-threshold=0.01 / no-opt-cu-delta-qp / no-aq-motion / no-hdr10 / no-hdr10-opt / no-dhdr10-opt / no-idr-recovery-sei / analysis-reuse-level=0 / analysis-save-reuse-level=0 / analysis-load-reuse-level=0 / scale-factor=0 / refine-intra=0 / refine-inter=0 / refine-mv=1 / refine-ctu-distortion=0 / no-limit-sao / ctu-info=0 / no-lowpass-dct / refine-analysis-type=0 / copy-pic=1 / max-ausize-factor=1.0 / no-dynamic-refine / no-single-sei / no-hevc-aq / no-svt / no-field / qp-adaptation-range=1.00 / no-scenecut-aware-qpconformance-window-offsets / right=0 / bottom=0
Encoded date         : UTC 2022-05-14 09:25:58
Tagged date      : UTC 2022-05-14 09:25:58
Codec configuration box      : hvcC

Audio
ID           : 2
Format       : AAC LC
Format/Info      : Advanced Audio Codec Low Complexity
Codec ID         : mp4a-40-2
Duration         : 1 h 25 min
Duration_LastFrame       : -11 ms
Bit rate mode        : Constant
Bit rate         : 224 kb/s
Channel(s)       : 2 channels
Channel layout       : L R
Sampling rate        : 48.0 kHz
Frame rate       : 46.875 FPS (1024 SPF)
Compression mode     : Lossy
Stream size      : 138 MiB (10%)
Language         : Japanese
Default          : Yes
Alternate group      : 1
Encoded date         : UTC 2022-05-14 09:25:58
Tagged date      : UTC 2022-05-14 09:25:58



悠悠MP4_MP4电影下载_赤线地带 Street.of.Shame.1956.JAPANESE.1080p.BluRay.x265-VXT 1.34 GB
悠悠MP4_MP4电影下载_赤线地带 Street.of.Shame.1956.JAPANESE.1080p.BluRay.x265-VXT 1.34 GB
悠悠MP4_MP4电影下载_赤线地带 Street.of.Shame.1956.JAPANESE.1080p.BluRay.x265-VXT 1.34 GB

磁力链接

magnet:?xt=urn:btih:5ea384f87a8fa781283b0dcc5a786ee646471c6a

上传的附件:
最新回复 (0)
返回
本站所有资源均收集自互联网,没有提供影片资源存储, 也未参与录制、上传,若本站收录的资源无意侵犯了您的权益, 请联系邮箱:gogoimgs#gmail.com(#=@)