[更早] [日本] [其他] [x265-1080P] 东京物语 Tokyo.Story.1953.JAPANESE.REMASTERED.1080p.BluRay.x265-VXT 2.12 GB

uump4 1天前 131

悠悠MP4_MP4电影下载_东京物语 Tokyo.Story.1953.JAPANESE.REMASTERED.1080p.BluRay.x265-VXT 2.12 GB

◎片  名 东京物语 東京物語 / 东京故事 / 东京纪行 / Tokyo Story
◎年  代 1953
◎产  地 日本
◎类  别 剧情 / 家庭
◎语  言 日语
◎上映日期 1953-11-03(日本)
◎IMDb评分  8.2/10 from 60335 users
◎IMDb链接  https://www.imdb.com/title/tt0046438/
◎豆瓣评分 9.1/10 from 125261 users
◎豆瓣链接 https://movie.douban.com/subject/1291568/
◎片  长 136 分钟
◎导  演 小津安二郎 Yasujirô Ozu
◎编  剧 野田高梧 Kôgo Noda
       小津安二郎 Yasujirô Ozu
◎主  演 笠智众 Chishû Ryû
       原节子 Setsuko Hara
       杉村春子 Haruko Sugimura
       东山千荣子 Chieko Higashiyama
       山村聪 Sô Yamamura
       香川京子 Kyôko Kagawa
       三谷幸子 Sachiko Mitani
       高桥丰子 Toyo Takahashi
       安部彻 Tôru Abe
       樱睦子 Mutsuko Sakura
       长冈辉子 Teruko Nagaoka
       十朱久雄 Hisao Toake
       大坂志郎 Shirô Osaka
       中村伸郎 Nobuo Nakamura
       东野英治郎 Eijirô Tôno

◎简  介

  儿女们都大了,各自成家。父亲周吉(笠智众饰)和老伴(东山千荣子饰)要去东京看望他们,老两口带着愉快心情上路。可另一边,还没等他们到大儿子家,孙子就因为爷爷奶奶到来腾地方哭闹不停。老人开始觉得尴尬,大儿子幸一(山村聪饰)在东京当医生,二女儿繁(杉村春子饰)在东京开美容店,二儿媳纪子(原节子饰),小女儿京子(香川京子饰)外,大阪还有三子敬三。                                    
      东京让老人陌生,在儿女家也好不到哪去。大儿子工作繁忙,没时间带他们出去玩。搬到女儿家,依旧每日困守且有矛盾。老两口渐渐也明白儿女们的处境,他们在东京的老友也过得不好。只有守寡的儿媳纪子对老人很是孝顺。之后老人踏上回家的路,前后不过十天……



Video
ID           : 1
Format       : HEVC
Format/Info      : High Efficiency Video Coding
Format profile       : Main 10@L4@Main
Codec ID         : hev1
Codec ID/Info        : High Efficiency Video Coding
Duration         : 2 h 16 min
Bit rate         : 2 001 kb/s
Width        : 1 480 pixels
Height       : 1 080 pixels
Display aspect ratio     : 1.370
Frame rate mode      : Constant
Frame rate       : 23.976 (24000/1001) FPS
Color space      : YUV
Chroma subsampling       : 4:2:0
Bit depth        : 10 bits
Bits/(Pixel*Frame)       : 0.052
Stream size      : 1.90 GiB (90%)
Writing library      : x265 3.3+4-rarbg-30eb4de83092:[Linux][GCC 8.3.1][64 bit] 10bit
Encoding settings        : cpuid=1111039 / frame-threads=4 / wpp / no-pmode / no-pme / no-psnr / no-ssim / log-level=2 / input-csp=1 / input-res=1480x1080 / interlace=0 / total-frames=0 / level-idc=0 / high-tier=1 / uhd-bd=0 / ref=4 / no-allow-non-conformance / no-repeat-headers / annexb / no-aud / no-hrd / info / hash=0 / no-temporal-layers / open-gop / min-keyint=23 / keyint=250 / gop-lookahead=0 / bframes=4 / b-adapt=2 / b-pyramid / bframe-bias=0 / rc-lookahead=25 / lookahead-slices=4 / scenecut=40 / hist-scenecut=0 / radl=0 / no-splice / no-intra-refresh / ctu=64 / min-cu-size=8 / rect / no-amp / max-tu-size=32 / tu-inter-depth=1 / tu-intra-depth=1 / limit-tu=0 / rdoq-level=2 / dynamic-rd=0.00 / no-ssim-rd / signhide / no-tskip / nr-intra=0 / nr-inter=0 / no-constrained-intra / strong-intra-smoothing / max-merge=3 / limit-refs=3 / limit-modes / me=3 / subme=3 / merange=57 / temporal-mvp / no-frame-dup / no-hme / weightp / no-weightb / no-analyze-src-pics / deblock=0:0 / no-sao / no-sao-non-deblock / rd=4 / selective-sao=0 / no-early-skip / rskip / no-fast-intra / no-tskip-fast / no-cu-lossless / no-b-intra / no-splitrd-skip / rdpenalty=0 / psy-rd=2.00 / psy-rdoq=1.00 / no-rd-refine / no-lossless / cbqpoffs=0 / crqpoffs=0 / rc=abr / bitrate=2000 / qcomp=0.60 / qpstep=4 / stats-write=0 / stats-read=2 / cplxblur=20.0 / qblur=0.5 / ipratio=1.40 / pbratio=1.30 / aq-mode=3 / aq-strength=1.00 / cutree / zone-count=0 / no-strict-cbr / qg-size=32 / no-rc-grain / qpmax=69 / qpmin=0 / no-const-vbv / sar=1 / overscan=0 / videoformat=5 / range=0 / colorprim=2 / transfer=2 / colormatrix=2 / chromaloc=0 / display-window=0 / cll=0,0 / min-luma=0 / max-luma=1023 / log2-max-poc-lsb=8 / vui-timing-info / vui-hrd-info / slices=1 / no-opt-qp-pps / no-opt-ref-list-length-pps / no-multi-pass-opt-rps / scenecut-bias=0.05 / hist-threshold=0.01 / no-opt-cu-delta-qp / no-aq-motion / no-hdr10 / no-hdr10-opt / no-dhdr10-opt / no-idr-recovery-sei / analysis-reuse-level=0 / analysis-save-reuse-level=0 / analysis-load-reuse-level=0 / scale-factor=0 / refine-intra=0 / refine-inter=0 / refine-mv=1 / refine-ctu-distortion=0 / no-limit-sao / ctu-info=0 / no-lowpass-dct / refine-analysis-type=0 / copy-pic=1 / max-ausize-factor=1.0 / no-dynamic-refine / no-single-sei / no-hevc-aq / no-svt / no-field / qp-adaptation-range=1.00 / no-scenecut-aware-qpconformance-window-offsets / right=0 / bottom=0
Encoded date         : UTC 2022-05-14 11:54:35
Tagged date      : UTC 2022-05-14 11:54:35
Codec configuration box      : hvcC

Audio
ID           : 2
Format       : AAC LC
Format/Info      : Advanced Audio Codec Low Complexity
Codec ID         : mp4a-40-2
Duration         : 2 h 16 min
Bit rate mode        : Constant
Bit rate         : 224 kb/s
Channel(s)       : 1 channel
Channel layout       : C
Sampling rate        : 48.0 kHz
Frame rate       : 46.875 FPS (1024 SPF)
Compression mode     : Lossy
Stream size      : 218 MiB (10%)
Language         : Japanese
Default          : Yes
Alternate group      : 1
Encoded date         : UTC 2022-05-14 11:54:35
Tagged date      : UTC 2022-05-14 11:54:35



悠悠MP4_MP4电影下载_东京物语 Tokyo.Story.1953.JAPANESE.REMASTERED.1080p.BluRay.x265-VXT 2.12 GB
悠悠MP4_MP4电影下载_东京物语 Tokyo.Story.1953.JAPANESE.REMASTERED.1080p.BluRay.x265-VXT 2.12 GB
悠悠MP4_MP4电影下载_东京物语 Tokyo.Story.1953.JAPANESE.REMASTERED.1080p.BluRay.x265-VXT 2.12 GB

磁力链接

magnet:?xt=urn:btih:7dd4f48e9429288c41e686acf5c2ecfcd9d360ea

上传的附件:
最新回复 (0)
返回
本站所有资源均收集自互联网,没有提供影片资源存储, 也未参与录制、上传,若本站收录的资源无意侵犯了您的权益, 请联系邮箱:gogoimgs#gmail.com(#=@)