[更早] [欧美] [犯罪] [x265-1080P] 情人节大屠杀 The.St.Valentines.Day.Massacre.1967.1080p.BluRay.x265-RARBG 1.56 GB

uump4 1天前 136

悠悠MP4_MP4电影下载_情人节大屠杀 The.St.Valentines.Day.Massacre.1967.1080p.BluRay.x265-RARBG 1.56 GB

◎片  名 情人节大屠杀 The St. Valentine's Day Massacre / 黑霸王大决斗
◎年  代 1967
◎产  地 美国
◎类  别 剧情 / 犯罪
◎语  言 英语
◎上映日期 1968-05-23
◎IMDb评分  6.6/10 from 4114 users
◎IMDb链接  https://www.imdb.com/title/tt0062301/
◎豆瓣评分 7.3/10 from 207 users
◎豆瓣链接 https://movie.douban.com/subject/1302302/
◎片  长 100 分钟
◎导  演 罗杰·科曼 Roger Corman
◎编  剧 霍华德·布朗 Howard Browne
◎主  演 杰森·罗巴兹 Jason Robards
       乔治·席格 George Segal
       拉尔夫·米克 Ralph Meeker
       琼·黑尔 Jean Hale
       克林特·里奇 Clint Ritchie
       弗兰克·斯尔维拉 Frank Silvera
       约瑟夫·康帕内拉 Joseph Campanella
       理查德·巴卡利安 Richard Bakalyan
       大卫·卡纳里 David Canary
       布鲁斯·邓恩 Bruce Dern
       哈罗德·J.斯通 Harold J. Stone
       库尔特·克罗伊格 Kurt Kreuger
       保罗·理查兹 Paul Richards
       乔·托克尔 Joe Turkel
       米尔顿·弗罗米 Milton Frome
       Charles Dierkop Charles Dierkop
       Jack Del Rio Jack Del Rio
       Mickey Deems Mickey Deems
       西莉亚·罗斯基 Celia Lovsky
       Richard Krisher Richard Krisher
       Reed Hadley Reed Hadley
       Ernesto Morelli Ernesto Morelli
       Barboura Morris Barboura Morris
       巴克·泰勒 Buck Taylor
       约翰·艾加尔 John Agar
       汤姆·里斯 Tom Reese
       汤姆·西尼奥雷利 Tom Signorelli
       保罗·理查兹 Paul Richards
       琼·肖丽 Joan Shawlee
       阿历克斯·罗克 Alex Rocco
       肯·斯科特 Ken Scott
       迪克·米勒 Dick Miller
       Jan Merlin Jan Merlin
       Betsy Jones Betsy Jones
       里奥·戈登 Leo Gordon
       Mary Grace Canfield Mary Grace Canfield
       亚历山大·达西 Alexander D'Arcy
       Rico Cattani Rico Cattani
       拉斯·康威 Russ Conway
       Nick Borgani Nick Borgani
       丹尼尔·阿德斯 Daniel Ades
       杰克·尼科尔森 Jack Nicholson
       保罗·费斯 Paul Frees
       Gus Trikonis Gus Trikonis
       乔纳森·海兹 Jonathan Haze

◎简  介

  阿尔·卡朋在1929年的芝加哥情人节给自己的老对手带来一个大惊喜。



Video
ID           : 1
Format       : HEVC
Format/Info      : High Efficiency Video Coding
Format profile       : Main 10@L4@Main
Codec ID         : hev1
Codec ID/Info        : High Efficiency Video Coding
Duration         : 1 h 39 min
Bit rate         : 2 001 kb/s
Width        : 1 920 pixels
Height       : 816 pixels
Display aspect ratio     : 2.35:1
Frame rate mode      : Constant
Frame rate       : 23.976 (24000/1001) FPS
Color space      : YUV
Chroma subsampling       : 4:2:0
Bit depth        : 10 bits
Bits/(Pixel*Frame)       : 0.053
Stream size      : 1.40 GiB (90%)
Writing library      : x265 3.3+4-rarbg-30eb4de83092:[Linux][GCC 8.3.1][64 bit] 10bit
Encoding settings        : cpuid=1111039 / frame-threads=4 / wpp / no-pmode / no-pme / no-psnr / no-ssim / log-level=2 / input-csp=1 / input-res=1920x816 / interlace=0 / total-frames=0 / level-idc=0 / high-tier=1 / uhd-bd=0 / ref=4 / no-allow-non-conformance / no-repeat-headers / annexb / no-aud / no-hrd / info / hash=0 / no-temporal-layers / open-gop / min-keyint=23 / keyint=250 / gop-lookahead=0 / bframes=4 / b-adapt=2 / b-pyramid / bframe-bias=0 / rc-lookahead=25 / lookahead-slices=4 / scenecut=40 / hist-scenecut=0 / radl=0 / no-splice / no-intra-refresh / ctu=64 / min-cu-size=8 / rect / no-amp / max-tu-size=32 / tu-inter-depth=1 / tu-intra-depth=1 / limit-tu=0 / rdoq-level=2 / dynamic-rd=0.00 / no-ssim-rd / signhide / no-tskip / nr-intra=0 / nr-inter=0 / no-constrained-intra / strong-intra-smoothing / max-merge=3 / limit-refs=3 / limit-modes / me=3 / subme=3 / merange=57 / temporal-mvp / no-frame-dup / no-hme / weightp / no-weightb / no-analyze-src-pics / deblock=0:0 / no-sao / no-sao-non-deblock / rd=4 / selective-sao=0 / no-early-skip / rskip / no-fast-intra / no-tskip-fast / no-cu-lossless / no-b-intra / no-splitrd-skip / rdpenalty=0 / psy-rd=2.00 / psy-rdoq=1.00 / no-rd-refine / no-lossless / cbqpoffs=0 / crqpoffs=0 / rc=abr / bitrate=2000 / qcomp=0.60 / qpstep=4 / stats-write=0 / stats-read=2 / cplxblur=20.0 / qblur=0.5 / ipratio=1.40 / pbratio=1.30 / aq-mode=3 / aq-strength=1.00 / cutree / zone-count=0 / no-strict-cbr / qg-size=32 / no-rc-grain / qpmax=69 / qpmin=0 / no-const-vbv / sar=1 / overscan=0 / videoformat=5 / range=0 / colorprim=2 / transfer=2 / colormatrix=2 / chromaloc=0 / display-window=0 / cll=0,0 / min-luma=0 / max-luma=1023 / log2-max-poc-lsb=8 / vui-timing-info / vui-hrd-info / slices=1 / no-opt-qp-pps / no-opt-ref-list-length-pps / no-multi-pass-opt-rps / scenecut-bias=0.05 / hist-threshold=0.01 / no-opt-cu-delta-qp / no-aq-motion / no-hdr10 / no-hdr10-opt / no-dhdr10-opt / no-idr-recovery-sei / analysis-reuse-level=0 / analysis-save-reuse-level=0 / analysis-load-reuse-level=0 / scale-factor=0 / refine-intra=0 / refine-inter=0 / refine-mv=1 / refine-ctu-distortion=0 / no-limit-sao / ctu-info=0 / no-lowpass-dct / refine-analysis-type=0 / copy-pic=1 / max-ausize-factor=1.0 / no-dynamic-refine / no-single-sei / no-hevc-aq / no-svt / no-field / qp-adaptation-range=1.00 / no-scenecut-aware-qpconformance-window-offsets / right=0 / bottom=0
Encoded date         : UTC 2022-05-14 10:53:05
Tagged date      : UTC 2022-05-14 10:53:05
Codec configuration box      : hvcC

Audio
ID           : 2
Format       : AAC LC
Format/Info      : Advanced Audio Codec Low Complexity
Codec ID         : mp4a-40-2
Duration         : 1 h 39 min
Bit rate mode        : Constant
Bit rate         : 224 kb/s
Channel(s)       : 1 channel
Channel layout       : C
Sampling rate        : 48.0 kHz
Frame rate       : 46.875 FPS (1024 SPF)
Compression mode     : Lossy
Stream size      : 160 MiB (10%)
Language         : English
Default          : Yes
Alternate group      : 1
Encoded date         : UTC 2022-05-14 10:53:05
Tagged date      : UTC 2022-05-14 10:53:05



悠悠MP4_MP4电影下载_情人节大屠杀 The.St.Valentines.Day.Massacre.1967.1080p.BluRay.x265-RARBG 1.56 GB
悠悠MP4_MP4电影下载_情人节大屠杀 The.St.Valentines.Day.Massacre.1967.1080p.BluRay.x265-RARBG 1.56 GB
悠悠MP4_MP4电影下载_情人节大屠杀 The.St.Valentines.Day.Massacre.1967.1080p.BluRay.x265-RARBG 1.56 GB

磁力链接

magnet:?xt=urn:btih:fbf7d76669cdf3bf4c205c857cfe58fe4f06f8ca

上传的附件:
最新回复 (0)
返回
本站所有资源均收集自互联网,没有提供影片资源存储, 也未参与录制、上传,若本站收录的资源无意侵犯了您的权益, 请联系邮箱:gogoimgs#gmail.com(#=@)