[更早] [中国台湾] [动作] [x265-1080P] 酒仙十八跌 The.World.Of.Drunken.Master.1979.DUBBED.1080p.BluRay.x265-RARBG 1.38 GB

uump4 3月前 189

悠悠MP4_MP4电影下载_酒仙十八跌 The.World.Of.Drunken.Master.1979.DUBBED.1080p.BluRay.x265-RARBG 1.38 GB

◎片  名 酒仙十八跌 / World of the Drunken Master / Drunken Dragon / The World of Drunken Master / 酒仙大醉龙
◎年  代 1979
◎产  地 中国台湾 / 中国香港
◎类  别 剧情 / 动作
◎语  言 粤语 / 汉语普通话
◎上映日期 
◎IMDb评分  5.8/10 from 238 users
◎IMDb链接  https://www.imdb.com/title/tt0080148/
◎豆瓣评分 5.6/10 from 146 users
◎豆瓣链接 https://movie.douban.com/subject/3299133/
◎片  长 98 分钟 / Hong Kong: 88 分钟
◎导  演 郭南宏 Joseph Kuo Nan-Hong
◎编  剧 丁善玺 Shan-hsi Ting
◎主  演 
      李艺民 Yi-min Li
      龙冠武 Mark Lung Goon-Mo
      龙飞 Fei Lung
      王宇 Yu Wang
      陈慧楼 Hui Lou Chen
      乾德门 Tak-Mun Kon

◎标  签 

◎简  介

  影片讲述了两大醉拳宗师的故事。
 苏化子,范大杯无以为生,专干偷鸡摸狗下三流勾当。一日,人偷採葡萄,被酒厂师父张七逮到,罚二人在酒厂当工还钱。张七见苏化子与范大杯天资聪明,於是将自己一身的功夫传援二人。一日苏化子与范大杯路见不平,开罪了鹰爪功霸主黄虎,而另一方面,叶虎得知张七是张果老後人,派手下金豹率众捉拿张七,酒厂老闆决不交人,於是金豹命人将酒厂拆毁,把酒厂工人杀尽......
 郭南宏的功夫片可谓是花样百出,但大部分质量有限,本片作为其后期作品,已经很难与当时的香港功夫片相比,好在此片武术指导是袁祥仁,袁家班的醉拳还是颇有看头的。



Video
ID        : 1
Format       : HEVC
Format/Info      : High Efficiency Video Coding
Format profile      : Main 10@L4@Main
Codec ID       : hev1
Codec ID/Info      : High Efficiency Video Coding
Duration       : 1 h 28 min
Bit rate       : 2 000 kb/s
Width        : 1 920 pixels
Height       : 816 pixels
Display aspect ratio     : 2.35:1
Frame rate mode      : Constant
Frame rate       : 23.976 (24000/1001) FPS
Color space      : YUV
Chroma subsampling     : 4:2:0
Bit depth       : 10 bits
Bits/(Pixel*Frame)     : 0.053
Stream size      : 1.23 GiB (90%)
Writing library      : x265 3.3+4-rarbg-30eb4de83092:[Linux][GCC 8.3.1][64 bit] 10bit
Encoding settings     : cpuid=1111039 / frame-threads=4 / wpp / no-pmode / no-pme / no-psnr / no-ssim / log-level=2 / input-csp=1 / input-res=1920x816 / interlace=0 / total-frames=0 / level-idc=0 / high-tier=1 / uhd-bd=0 / ref=4 / no-allow-non-conformance / no-repeat-headers / annexb / no-aud / no-hrd / info / hash=0 / no-temporal-layers / open-gop / min-keyint=23 / keyint=250 / gop-lookahead=0 / bframes=4 / b-adapt=2 / b-pyramid / bframe-bias=0 / rc-lookahead=25 / lookahead-slices=4 / scenecut=40 / hist-scenecut=0 / radl=0 / no-splice / no-intra-refresh / ctu=64 / min-cu-size=8 / rect / no-amp / max-tu-size=32 / tu-inter-depth=1 / tu-intra-depth=1 / limit-tu=0 / rdoq-level=2 / dynamic-rd=0.00 / no-ssim-rd / signhide / no-tskip / nr-intra=0 / nr-inter=0 / no-constrained-intra / strong-intra-smoothing / max-merge=3 / limit-refs=3 / limit-modes / me=3 / subme=3 / merange=57 / temporal-mvp / no-frame-dup / no-hme / weightp / no-weightb / no-analyze-src-pics / deblock=0:0 / no-sao / no-sao-non-deblock / rd=4 / selective-sao=0 / no-early-skip / rskip / no-fast-intra / no-tskip-fast / no-cu-lossless / no-b-intra / no-splitrd-skip / rdpenalty=0 / psy-rd=2.00 / psy-rdoq=1.00 / no-rd-refine / no-lossless / cbqpoffs=0 / crqpoffs=0 / rc=abr / bitrate=2000 / qcomp=0.60 / qpstep=4 / stats-write=0 / stats-read=2 / cplxblur=20.0 / qblur=0.5 / ipratio=1.40 / pbratio=1.30 / aq-mode=3 / aq-strength=1.00 / cutree / zone-count=0 / no-strict-cbr / qg-size=32 / no-rc-grain / qpmax=69 / qpmin=0 / no-const-vbv / sar=1 / overscan=0 / videoformat=5 / range=0 / colorprim=2 / transfer=2 / colormatrix=2 / chromaloc=0 / display-window=0 / cll=0,0 / min-luma=0 / max-luma=1023 / log2-max-poc-lsb=8 / vui-timing-info / vui-hrd-info / slices=1 / no-opt-qp-pps / no-opt-ref-list-length-pps / no-multi-pass-opt-rps / scenecut-bias=0.05 / hist-threshold=0.01 / no-opt-cu-delta-qp / no-aq-motion / no-hdr10 / no-hdr10-opt / no-dhdr10-opt / no-idr-recovery-sei / analysis-reuse-level=0 / analysis-save-reuse-level=0 / analysis-load-reuse-level=0 / scale-factor=0 / refine-intra=0 / refine-inter=0 / refine-mv=1 / refine-ctu-distortion=0 / no-limit-sao / ctu-info=0 / no-lowpass-dct / refine-analysis-type=0 / copy-pic=1 / max-ausize-factor=1.0 / no-dynamic-refine / no-single-sei / no-hevc-aq / no-svt / no-field / qp-adaptation-range=1.00 / no-scenecut-aware-qpconformance-window-offsets / right=0 / bottom=0
Encoded date      : UTC 2022-01-26 16:33:15
Tagged date      : UTC 2022-01-26 16:33:15
Codec configuration box    : hvcC

Audio
ID        : 2
Format       : AAC LC
Format/Info      : Advanced Audio Codec Low Complexity
Codec ID       : mp4a-40-2
Duration       : 1 h 28 min
Bit rate mode      : Constant
Bit rate       : 224 kb/s
Channel(s)       : 1 channel
Channel layout      : C
Sampling rate      : 48.0 kHz
Frame rate       : 46.875 FPS (1024 SPF)
Compression mode     : Lossy
Stream size      : 141 MiB (10%)
Language       : English
Default       : Yes
Alternate group      : 1
Encoded date      : UTC 2022-01-26 16:33:15
Tagged date      : UTC 2022-01-26 16:33:15


悠悠MP4_MP4电影下载_酒仙十八跌 The.World.Of.Drunken.Master.1979.DUBBED.1080p.BluRay.x265-RARBG 1.38 GB
悠悠MP4_MP4电影下载_酒仙十八跌 The.World.Of.Drunken.Master.1979.DUBBED.1080p.BluRay.x265-RARBG 1.38 GB
悠悠MP4_MP4电影下载_酒仙十八跌 The.World.Of.Drunken.Master.1979.DUBBED.1080p.BluRay.x265-RARBG 1.38 GB

磁力链接

magnet:?xt=urn:btih:38095cec7eb872f524753ce1a0cf3a4c0c9dd9c3
上传的附件:
最新回复 (0)
返回
本站所有资源均收集自互联网,没有提供影片资源存储, 也未参与录制、上传,若本站收录的资源无意侵犯了您的权益, 请联系邮箱:gogoimgs#gmail.com(#=@)