[更早] [欧美] [恐怖] [x265-4K] 工具箱杀手 The.Toolbox.Murders.1978.2160p.BluRay.x265.10bit.SDR.DTS-HD.MA.TrueHD.7.1.Atmos-SWTYBLZ 57.58 GB

uump4 3月前 155

悠悠MP4_MP4电影下载_工具箱杀手 The.Toolbox.Murders.1978.2160p.BluRay.x265.10bit.SDR.DTS-HD.MA.TrueHD.7.1.Atmos-SWTYBLZ 57.58 GB

◎片  名 工具箱杀手 The Toolbox Murders
◎年  代 1978
◎产  地 美国
◎类  别 惊悚 / 恐怖
◎语  言 英语
◎上映日期 1978-03-03(美国)
◎IMDb评分  5.3/10 from 3859 users
◎IMDb链接  https://www.imdb.com/title/tt0078405/
◎豆瓣评分 5.3/10 from 91 users
◎豆瓣链接 https://movie.douban.com/subject/2174074/
◎片  长 93 分钟
◎导  演 丹尼斯·唐纳利 Dennis Donnelly
◎编  剧 安·金德伯格 Ann Kindberg
       Robert Easter Robert Easter
◎主  演 卡梅隆·米切尔 Cameron Mitchell
       帕梅琳·费丁 Pamelyn Ferdin
       Wesley Eure Wesley Eure
       Robert Leh Robert Leh
       James Nolan James Nolan
       凯思琳·奥马利 Kathleen O'Malley
       凯丽·尼科尔斯 Kelly Nichols
       Evelyn Guerrero Evelyn Guerrero
       约翰·霍克 John Hawker
       唐·戴蒙德 Don Diamond
       Tim Donnelly Tim Donnelly
       Robert Forward Robert Forward
       安妮塔·可桑 Aneta Corsaut
       Nicolas Beauvy Nicolas Beauvy
       丹尼斯·唐纳利 Dennis Donnelly

◎标  签 

◎简  介

  托比·霍珀指导、安吉拉·贝蒂斯主演的美国恐怖电影。                                    
      电影讲述了在好莱坞的一家老旧饭店“鲁斯曼·阿姆斯公寓”中发生的灵异事件,在屋主准备装修饭店时发生了人们只能进却无法出饭店的事情。



Video
ID           : 1
Format       : HEVC
Format/Info      : High Efficiency Video Coding
Format profile       : Main 10@L5.1@High
Codec ID         : V_MPEGH/ISO/HEVC
Duration         : 1 h 33 min
Bit rate         : 79.6 Mb/s
Width        : 3 586 pixels
Height       : 2 160 pixels
Display aspect ratio     : 5:3
Frame rate mode      : Constant
Frame rate       : 23.976 (24000/1001) FPS
Color space      : YUV
Chroma subsampling       : 4:2:0
Bit depth        : 10 bits
Bits/(Pixel*Frame)       : 0.429
Stream size      : 52.2 GiB (91%)
Writing library      : x265 3.0+1-ed72af837053:[Windows][GCC 8.2.0][64 bit] 10bit
Encoding settings        : cpuid=1111039 / frame-threads=6 / numa-pools=40 / wpp / no-pmode / no-pme / no-psnr / no-ssim / log-level=2 / input-csp=1 / input-res=3586x2160 / interlace=0 / total-frames=135064 / level-idc=51 / high-tier=1 / uhd-bd=0 / ref=3 / no-allow-non-conformance / repeat-headers / annexb / aud / hrd / info / hash=0 / no-temporal-layers / no-open-gop / min-keyint=1 / keyint=24 / gop-lookahead=0 / bframes=4 / b-adapt=2 / b-pyramid / bframe-bias=0 / rc-lookahead=25 / lookahead-slices=4 / scenecut=40 / radl=0 / no-splice / no-intra-refresh / ctu=64 / min-cu-size=8 / no-rect / no-amp / max-tu-size=32 / tu-inter-depth=1 / tu-intra-depth=1 / limit-tu=0 / rdoq-level=0 / dynamic-rd=0.00 / no-ssim-rd / signhide / no-tskip / nr-intra=0 / nr-inter=0 / no-constrained-intra / strong-intra-smoothing / max-merge=2 / limit-refs=3 / no-limit-modes / me=1 / subme=2 / merange=57 / temporal-mvp / weightp / no-weightb / no-analyze-src-pics / deblock=0:0 / no-sao / no-sao-non-deblock / rd=3 / no-early-skip / rskip / no-fast-intra / no-tskip-fast / no-cu-lossless / no-b-intra / no-splitrd-skip / rdpenalty=0 / psy-rd=2.00 / psy-rdoq=0.00 / no-rd-refine / no-lossless / cbqpoffs=0 / crqpoffs=0 / rc=crf / crf=21.0 / qcomp=0.60 / qpstep=4 / stats-write=0 / stats-read=0 / vbv-maxrate=160000 / vbv-bufsize=160000 / vbv-init=0.9 / crf-max=0.0 / crf-min=0.0 / ipratio=1.40 / pbratio=1.30 / aq-mode=1 / aq-strength=1.00 / cutree / zone-count=0 / no-strict-cbr / qg-size=32 / no-rc-grain / qpmax=69 / qpmin=0 / no-const-vbv / sar=1 / overscan=0 / videoformat=5 / range=0 / colorprim=2 / transfer=2 / colormatrix=2 / chromaloc=0 / display-window=0 / max-cll=0,0 / min-luma=0 / max-luma=1023 / log2-max-poc-lsb=8 / vui-timing-info / vui-hrd-info / slices=1 / opt-qp-pps / opt-ref-list-length-pps / no-multi-pass-opt-rps / scenecut-bias=0.05 / no-opt-cu-delta-qp / no-aq-motion / no-hdr / no-hdr-opt / no-dhdr10-opt / no-idr-recovery-sei / analysis-reuse-level=5 / scale-factor=0 / refine-intra=0 / refine-inter=0 / refine-mv=0 / refine-ctu-distortion=0 / no-limit-sao / ctu-info=0 / no-lowpass-dct / refine-analysis-type=0 / copy-pic=1 / max-ausize-factor=1.0 / no-dynamic-refine / no-single-sei / no-hevc-aq / qp-adaptation-range=1.00
Default          : Yes
Forced       : No

Audio #1
ID           : 2
ID in the original source medium     : 4352 (0x1100)
Format       : MLP FBA 16-ch
Format/Info      : Meridian Lossless Packing FBA with 16-channel presentation
Commercial name      : Dolby TrueHD with Dolby Atmos
Codec ID         : A_TRUEHD
Duration         : 1 h 33 min
Bit rate mode        : Variable
Bit rate         : 3 563 kb/s
Maximum bit rate     : 5 163 kb/s
Channel(s)       : 8 channels
Channel layout       : L R C LFE Ls Rs Lb Rb
Sampling rate        : 48.0 kHz
Frame rate       : 1 200.000 FPS (40 SPF)
Bit depth        : 24 bits
Compression mode     : Lossless
Stream size      : 2.34 GiB (4%)
Title        : TrueHD 7.1 Atmos
Language         : English
Default          : Yes
Forced       : No
Original source medium       : Blu-ray
Number of dynamic objects    : 11
Bed channel count        : 1 channel
Bed channel configuration    : LFE

Audio #2
ID           : 3
Format       : DTS XLL
Format/Info      : Digital Theater Systems
Commercial name      : DTS-HD Master Audio
Codec ID         : A_DTS
Duration         : 1 h 33 min
Bit rate mode        : Variable
Bit rate         : 3 413 kb/s
Channel(s)       : 8 channels
Channel layout       : C L R LFE Lb Rb Lss Rss
Sampling rate        : 48.0 kHz
Frame rate       : 93.750 FPS (512 SPF)
Bit depth        : 24 bits
Compression mode     : Lossless
Stream size      : 2.24 GiB (4%)
Title        : DTS-HD MA 7.1
Language         : English
Default          : No
Forced       : No

Audio #3
ID           : 4
ID in the original source medium     : 4352 (0x1100)
Format       : AC-3
Format/Info      : Audio Coding 3
Commercial name      : Dolby Digital
Codec ID         : A_AC3
Duration         : 1 h 33 min
Bit rate mode        : Constant
Bit rate         : 640 kb/s
Channel(s)       : 6 channels
Channel layout       : L R C LFE Ls Rs
Sampling rate        : 48.0 kHz
Frame rate       : 31.250 FPS (1536 SPF)
Compression mode     : Lossy
Stream size      : 430 MiB (1%)
Title        : DD 5.1
Language         : English
Service kind         : Complete Main
Default          : No
Forced       : No
Original source medium       : Blu-ray

Text #1
ID           : 5
Format       : UTF-8
Codec ID         : S_TEXT/UTF8
Codec ID/Info        : UTF-8 Plain Text
Duration         : 1 h 28 min
Bit rate         : 45 b/s
Count of elements        : 838
Stream size      : 29.3 KiB (0%)
Language         : English
Default          : Yes
Forced       : No

Text #2
ID           : 6
Format       : UTF-8
Codec ID         : S_TEXT/UTF8
Codec ID/Info        : UTF-8 Plain Text
Duration         : 1 h 28 min
Bit rate         : 51 b/s
Count of elements        : 970
Stream size      : 33.2 KiB (0%)
Title        : SDH
Language         : English
Default          : No
Forced       : No

Text #3
ID           : 7
ID in the original source medium     : 4768 (0x12A0)
Format       : PGS
Muxing mode      : zlib
Codec ID         : S_HDMV/PGS
Codec ID/Info        : Picture based subtitle format used on BDs/HD-DVDs
Duration         : 1 h 28 min
Bit rate         : 33.5 kb/s
Count of elements        : 1968
Stream size      : 21.3 MiB (0%)
Language         : English
Default          : No
Forced       : No
Original source medium       : Blu-ray

Text #4
ID           : 8
ID in the original source medium     : 4769 (0x12A1)
Format       : PGS
Muxing mode      : zlib
Codec ID         : S_HDMV/PGS
Codec ID/Info        : Picture based subtitle format used on BDs/HD-DVDs
Duration         : 1 h 30 min
Bit rate         : 24.0 kb/s
Count of elements        : 1554
Stream size      : 15.6 MiB (0%)
Language         : French
Default          : No
Forced       : No
Original source medium       : Blu-ray

Text #5
ID           : 9
ID in the original source medium     : 4770 (0x12A2)
Format       : PGS
Muxing mode      : zlib
Codec ID         : S_HDMV/PGS
Codec ID/Info        : Picture based subtitle format used on BDs/HD-DVDs
Duration         : 1 h 30 min
Bit rate         : 25.9 kb/s
Count of elements        : 1548
Stream size      : 16.8 MiB (0%)
Language         : Spanish
Default          : No
Forced       : No
Original source medium       : Blu-ray

Menu
00:00:00.000         : en:Chapter 01
00:04:22.720         : en:Chapter 02
00:08:35.473         : en:Chapter 03
00:12:18.279         : en:Chapter 04
00:15:59.166         : en:Chapter 05
00:21:36.545         : en:Chapter 06
00:28:15.568         : en:Chapter 07
00:33:18.830         : en:Chapter 08
00:36:52.376         : en:Chapter 09
00:45:54.376         : en:Chapter 10
00:50:05.419         : en:Chapter 11
01:00:55.151         : en:Chapter 12
01:04:15.393         : en:Chapter 13
01:07:37.178         : en:Chapter 14
01:11:49.847         : en:Chapter 15
01:17:22.554         : en:Chapter 16
01:24:38.823         : en:Chapter 17
01:28:00.400         : en:Chapter 18
01:30:44.063         : en:Chapter 19



SWEATY BALLZ presents

The.Toolbox.Murders.1978.2160p.BluRay.x265.10bit.SDR.DTS-HD.MA.TrueHD.7.1.Atmos-SWTYBLZ

Converted from 10 bit HDR to 10 bit SDR using tripple mixed Hable-Reinhard-JJ per scene+frame analysis algorithm

Screenshots are 8bit SDR

悠悠MP4_MP4电影下载_工具箱杀手 The.Toolbox.Murders.1978.2160p.BluRay.x265.10bit.SDR.DTS-HD.MA.TrueHD.7.1.Atmos-SWTYBLZ 57.58 GB
悠悠MP4_MP4电影下载_工具箱杀手 The.Toolbox.Murders.1978.2160p.BluRay.x265.10bit.SDR.DTS-HD.MA.TrueHD.7.1.Atmos-SWTYBLZ 57.58 GB
悠悠MP4_MP4电影下载_工具箱杀手 The.Toolbox.Murders.1978.2160p.BluRay.x265.10bit.SDR.DTS-HD.MA.TrueHD.7.1.Atmos-SWTYBLZ 57.58 GB
悠悠MP4_MP4电影下载_工具箱杀手 The.Toolbox.Murders.1978.2160p.BluRay.x265.10bit.SDR.DTS-HD.MA.TrueHD.7.1.Atmos-SWTYBLZ 57.58 GB
悠悠MP4_MP4电影下载_工具箱杀手 The.Toolbox.Murders.1978.2160p.BluRay.x265.10bit.SDR.DTS-HD.MA.TrueHD.7.1.Atmos-SWTYBLZ 57.58 GB
悠悠MP4_MP4电影下载_工具箱杀手 The.Toolbox.Murders.1978.2160p.BluRay.x265.10bit.SDR.DTS-HD.MA.TrueHD.7.1.Atmos-SWTYBLZ 57.58 GB
悠悠MP4_MP4电影下载_工具箱杀手 The.Toolbox.Murders.1978.2160p.BluRay.x265.10bit.SDR.DTS-HD.MA.TrueHD.7.1.Atmos-SWTYBLZ 57.58 GB
悠悠MP4_MP4电影下载_工具箱杀手 The.Toolbox.Murders.1978.2160p.BluRay.x265.10bit.SDR.DTS-HD.MA.TrueHD.7.1.Atmos-SWTYBLZ 57.58 GB

磁力链接

magnet:?xt=urn:btih:5117a0b2affeb4013aeefc2ec4f80b67e4ccdfb6

上传的附件:
最新回复 (0)
返回
本站所有资源均收集自互联网,没有提供影片资源存储, 也未参与录制、上传,若本站收录的资源无意侵犯了您的权益, 请联系邮箱:gogoimgs#gmail.com(#=@)