[2012] [欧美] [纪录] [x264-720P] 贝蒂佩吉的一切 Bettie.Page.Reveals.All.2012.iNTERNAL.720p.BluRay.x264-PEGASUS 4.18 GB

uump4 3月前 211

悠悠MP4_MP4电影下载_贝蒂佩吉的一切 Bettie.Page.Reveals.All.2012.iNTERNAL.720p.BluRay.x264-PEGASUS 4.18 GB

◎片  名 贝蒂佩吉的一切 Bettie Page Reveals All / 招贴画女郎一览无余
◎年  代 2012
◎产  地 美国
◎类  别 纪录片
◎语  言 英语
◎上映日期 2012-09-08(美国)
◎IMDb评分  7.1/10 from 1501 users
◎IMDb链接  https://www.imdb.com/title/tt1776086/
◎豆瓣评分 7.1/10 from 56 users
◎豆瓣链接 https://movie.douban.com/subject/11232696/
◎片  长 101
◎导  演 
◎编  剧 Doug Miller Doug Miller
◎主  演 贝蒂·佩吉 Bettie Page
       蒂塔·万·提斯 Dita Von Teese
       休·海夫纳 Hugh M. Hefner
       莱蒂西娅·卡斯塔 Laetitia Casta
       南吉·奥曼恩 Nadja Auermann

◎标  签 

◎简  介

  The world's greatest pinup model and cult icon, Bettie Page, recounts the true story of how her free expression overcame government witch-hunts to help launch America's sexual revolution.



Video
ID           : 1
Format       : AVC
Format/Info      : Advanced Video Codec
Format profile       : High@L4.1
Format settings      : CABAC / 9 Ref Frames
Format settings, CABAC       : Yes
Format settings, Reference frames    : 9 frames
Codec ID         : V_MPEG4/ISO/AVC
Duration         : 1 h 41 min
Bit rate         : 5 231 kb/s
Width        : 1 280 pixels
Height       : 720 pixels
Display aspect ratio     : 16:9
Frame rate mode      : Constant
Frame rate       : 23.976 (24000/1001) FPS
Color space      : YUV
Chroma subsampling       : 4:2:0
Bit depth        : 8 bits
Scan type        : Progressive
Bits/(Pixel*Frame)       : 0.237
Stream size      : 3.71 GiB (89%)
Writing library      : x264 core 164 r3081 19856cc
Encoding settings        : cabac=1 / ref=9 / deblock=1:-3:-3 / analyse=0x3:0x133 / me=umh / subme=11 / psy=1 / psy_rd=1.02:0.00 / mixed_ref=1 / me_range=32 / chroma_me=1 / trellis=2 / 8x8dct=1 / cqm=0 / deadzone=21,11 / fast_pskip=0 / chroma_qp_offset=-2 / threads=22 / lookahead_threads=5 / sliced_threads=0 / nr=0 / decimate=0 / interlaced=0 / bluray_compat=0 / constrained_intra=0 / bframes=16 / b_pyramid=2 / b_adapt=2 / b_bias=0 / direct=3 / weightb=1 / open_gop=0 / weightp=2 / keyint=250 / keyint_min=23 / scenecut=40 / intra_refresh=0 / rc_lookahead=250 / rc=crf / mbtree=0 / crf=17.0 / qcomp=0.60 / qpmin=0 / qpmax=69 / qpstep=4 / vbv_maxrate=62500 / vbv_bufsize=78125 / crf_max=0.0 / nal_hrd=none / filler=0 / ip_ratio=1.30 / pb_ratio=1.20 / aq=3:0.80
Default          : Yes
Forced       : No
Color range      : Limited
Color primaries      : BT.709
Matrix coefficients      : BT.709

Audio
ID           : 2
Format       : AC-3
Format/Info      : Audio Coding 3
Commercial name      : Dolby Digital
Codec ID         : A_AC3
Duration         : 1 h 41 min
Bit rate mode        : Constant
Bit rate         : 640 kb/s
Channel(s)       : 6 channels
Channel layout       : L R C LFE Ls Rs
Sampling rate        : 48.0 kHz
Frame rate       : 31.250 FPS (1536 SPF)
Compression mode     : Lossy
Stream size      : 464 MiB (11%)
Language         : English
Service kind         : Complete Main
Default          : Yes
Forced       : No

Text
ID           : 3
Format       : PGS
Muxing mode      : zlib
Codec ID         : S_HDMV/PGS
Codec ID/Info        : Picture based subtitle format used on BDs/HD-DVDs
Duration         : 1 h 41 min
Bit rate         : 68.9 kb/s
Count of elements        : 3466
Stream size      : 49.8 MiB (1%)
Language         : English
Default          : No
Forced       : No

Menu
00:00:00.000         : :Chapter 01
00:05:29.462         : :Chapter 02
00:09:08.014         : :Chapter 03
00:13:59.272         : :Chapter 04
00:20:01.167         : :Chapter 05
00:27:52.638         : :Chapter 06
00:34:46.818         : :Chapter 07
00:40:15.446         : :Chapter 08
00:46:51.342         : :Chapter 09
00:53:06.617         : :Chapter 10
00:59:13.784         : :Chapter 11
01:04:01.471         : :Chapter 12
01:13:03.579         : :Chapter 13
01:17:52.601         : :Chapter 14
01:22:29.678         : :Chapter 15
01:30:44.973         : :Chapter 16
01:37:38.786         : :Chapter 17



Screenshots:
悠悠MP4_MP4电影下载_贝蒂佩吉的一切 Bettie.Page.Reveals.All.2012.iNTERNAL.720p.BluRay.x264-PEGASUS 4.18 GB
_                                                                              ]Mql
/*d ^\"._
;-.                                  .-,-  ,x*\'    q_
. ^_    -.                         _!  _6      *._*/^
_^x  ^*.                     ,^   F        T \'
]\"-.   *,   \"-^m_   ^-._              *C,/   f       _   ^,
\',  *, _  ,  \"= ._  = ,_          f   ]    I          g
*q    \"*.*_^-.     \'*-* .CZMmpw,      ,]    ]q          M,
,_   \"w_.  *Qbg_^-._           q ! :gcJ]f    f M0MNq_ *m   $
( ^= _ *a_   _  \"*w_MC     ] I/\"7_         f   M  )Mgp\'
\"v    *+JM*q_+w_    _#*\"*, ,    tf , J         f    &,hf
*m,_ = , MNmg_^*#^  ==e4--    Lb  !         f
. Mmq,_\" - ._\"**  S_ =*&    *mm0a,     _   4  _,,
.  \"\"-=JZM0Mpgg,,__ -p^ Z7@&,        Y      \"q_gJ#g
\',_   +- ,___^&_   J  \"kmu         _,a*    -CMq
**mqag,,___^_\"\"*y-\"9^  -]    ]    /       _a_ ^Mm,
^S  5_gu*a    \'          _N   \"*g_ \"m,
,pmmme=\"_,w\"                _F  _   Nq   f
m^        \"                    #  dM&q_ M- 4
p@\"*g,_$                    _,        ,QL*      q#   b
# g0                  _p@^       p\'          0N_  t
I \'_*#p8                 *         _p             # Mg]
#  I]\']6 :                      _,m\'              4_   l
]  !4 ]f S         ]    _,p,,ms@                  *._j
f ] ]f +          & p\"
m_    _J   ] ]1  *         0f#
!**\"^    ]  #,           # 2
#mu,__,,b -   _\'  f   Mq         j\'_
g          _r ,(      *m_    ,Y A
&      / M*\"_\'          ]   j! d
m,_,\'     /            ]   \' F
_p*   _,*^             f   &_&
M**M               ]     0q,
]maq__    M&*q
\"*q_   _*Pu
\"pFMc
#    ^q
4__   L*

Bettie.Page.Reveals.All.2012.720p.BluRay.x264-PEGASUS

Genre: Documentary Biography
Release Date: 1.2022
Runtime: 101 Min
iMDB: https://www.imdb.com/title/tt1776086/
iMDB Rating: 7.1
Video: 1280x720p, 5231 kbps, CRF 17.0
Audio: English Dolby Digital 5.1
Source: 19026 kbps
Subtitles: English

f

_  ^        ^      m                           _                 ,
\'    ___   ^  \'   __                                      __          ___    ^

_ mg             _                                _           ^       f
^                                                        f
1     _   _    m                       m _   _   \'
.       \"\" �  _               \" _   ^ \'  \'
_   , _ _ _ ___,____ /^  _-  _/    ^
^\" \'_      r    \'     g      _\" \"
^

磁力链接

magnet:?xt=urn:btih:9ed47c7dda0c0c88b8e61bdd9d8de45c5b16e13e

上传的附件:
最新回复 (0)
返回
本站所有资源均收集自互联网,没有提供影片资源存储, 也未参与录制、上传,若本站收录的资源无意侵犯了您的权益, 请联系邮箱:gogoimgs#gmail.com(#=@)