[2021] [欧美] [剧情] [x264-1080P] 一个英雄 A.Hero.2021.1080p.WEB.h264-RUMOUR 8.45 GB

uump4 3月前 557

悠悠MP4_MP4电影下载_一个英雄 A.Hero.2021.1080p.WEB.h264-RUMOUR 8.45 GB

◎片  名 一个英雄 قهرمان / A Hero
◎年  代 2021
◎产  地 伊朗
◎类  别 剧情
◎语  言 波斯语
◎上映日期 2021-07-13(戛纳电影节) / 2022-01-07(美国) / 2022-01-21(美国网络)
◎IMDb评分  7.2/10 from 8915 users
◎IMDb链接  https://www.imdb.com/title/tt11777738/
◎豆瓣评分 7.2/10 from 221 users
◎豆瓣链接 https://movie.douban.com/subject/34966906/
◎片  长 127分钟
◎导  演 阿斯哈·法哈蒂 Asghar Farhadi
◎编  剧 阿斯哈·法哈蒂 Asghar Farhadi
◎主  演 阿米尔·扎迪迪 Amir Jadidi
       莫森·坦纳班德 Mohsen Tanabandeh
       弗里施特·萨德尔·奥拉法耶 Fereshteh Sadre Orafaiy
       萨日娜·法哈蒂 Sarina Farhadi

◎标  签 

◎简  介

  阿斯哈·法哈蒂执导的新片[一个英雄]在伊朗正式杀青!该片由阿米尔·扎迪迪、莫森·坦纳班德、Fereshteh Sadr-Orafai主演,剧情暂时处于保密阶段。Memento影业负责该片法国发行,阿斯哈与Alexandre Mallet-Guy担任制作人。

◎获奖情况

  第74届戛纳电影节 (2021)
  主竞赛单元 金棕榈奖(提名)
  阿斯哈·法哈蒂主竞赛单元 评审团大奖
  阿斯哈·法哈蒂

  第79届金球奖 (2022)
  电影类 最佳外语片(提名)



Video
ID           : 1
Format       : AVC
Format/Info      : Advanced Video Codec
Format profile       : High@L4
Format settings      : CABAC / 4 Ref Frames
Format settings, CABAC       : Yes
Format settings, Reference frames    : 4 frames
Codec ID         : V_MPEG4/ISO/AVC
Duration         : 2 h 8 min
Bit rate mode        : Constant
Bit rate         : 8 811 kb/s
Nominal bit rate     : 10 000 kb/s
Width        : 1 920 pixels
Height       : 800 pixels
Display aspect ratio     : 2.40:1
Frame rate mode      : Constant
Frame rate       : 23.976 (24000/1001) FPS
Color space      : YUV
Chroma subsampling       : 4:2:0
Bit depth        : 8 bits
Scan type        : Progressive
Bits/(Pixel*Frame)       : 0.239
Stream size      : 7.88 GiB (93%)
Language         : Persian
Default          : Yes
Forced       : No
Color range      : Limited
Color primaries      : BT.709
Transfer characteristics     : BT.709
Matrix coefficients      : BT.709

Audio
ID           : 2
Format       : E-AC-3
Format/Info      : Enhanced AC-3
Commercial name      : Dolby Digital Plus
Codec ID         : A_EAC3
Duration         : 2 h 8 min
Bit rate mode        : Constant
Bit rate         : 640 kb/s
Channel(s)       : 6 channels
Channel layout       : L R C LFE Ls Rs
Sampling rate        : 48.0 kHz
Frame rate       : 31.250 FPS (1536 SPF)
Compression mode     : Lossy
Stream size      : 586 MiB (7%)
Language         : Persian
Service kind         : Complete Main
Default          : Yes
Forced       : No

Text #1
ID           : 3
Format       : UTF-8
Codec ID         : S_TEXT/UTF8
Codec ID/Info        : UTF-8 Plain Text
Duration         : 2 h 3 min
Bit rate         : 59 b/s
Count of elements        : 1621
Stream size      : 53.8 KiB (0%)
Title        : English
Language         : English
Default          : No
Forced       : No

Text #2
ID           : 4
Format       : UTF-8
Codec ID         : S_TEXT/UTF8
Codec ID/Info        : UTF-8 Plain Text
Duration         : 2 h 6 min
Bit rate         : 59 b/s
Count of elements        : 2166
Stream size      : 55.3 KiB (0%)
Title        : English
Language         : English
Default          : No
Forced       : No



Screenshots:
悠悠MP4_MP4电影下载_一个英雄 A.Hero.2021.1080p.WEB.h264-RUMOUR 8.45 GB
presents
A.Hero.2021.1080p.WEB.h264-RUMOUR

date......: 21/01/2022
size......: 8.45 GiB
runtime...: 2 h 8 min
resolution: 1920x800
bitrate...: 8 811 kb/s
audio.....: (Persian) E-AC-3 6ch 640 kb/s
subs......: English, English
url.......: https://www.imdb.com/title/tt11777738

Rumour has it this is a Quality release!

磁力链接

magnet:?xt=urn:btih:8c2680191a6194db8c9bcc59d9a05b12b1b9fcbe

上传的附件:
最新回复 (0)
返回
本站所有资源均收集自互联网,没有提供影片资源存储, 也未参与录制、上传,若本站收录的资源无意侵犯了您的权益, 请联系邮箱:gogoimgs#gmail.com(#=@)