[2021] [欧美] [科幻] [x265-1080P] 无限 Infinite.2021.1080p.BluRay.x265-RARBG 1.66 GB

uump4 3月前 710

悠悠MP4_MP4电影下载_无限 Infinite.2021.1080p.BluRay.x265-RARBG 1.66 GB

◎片  名 无限 Infinite / 无限轮回
◎年  代 2021
◎产  地 美国
◎类  别 动作 / 科幻 / 惊悚
◎语  言 英语
◎上映日期 2021-06-10(美国网络)
◎IMDb评分  5.5/10 from 40028 users
◎IMDb链接  https://www.imdb.com/title/tt6654210/
◎豆瓣评分 5.4/10 from 8550 users
◎豆瓣链接 https://movie.douban.com/subject/30368448/
◎片  长 106分钟
◎导  演 安东尼·福奎阿 Antoine Fuqua
◎编  剧 伊恩·肖尔 Ian Shorr
       托德·斯坦因 Todd Stein
       D· 埃里克·麦克兰兹 D. Eric Maikranz
       约翰·李·汉考克 John Lee Hancock
◎主  演 马克·沃尔伯格 Mark Wahlberg
       迪伦·奥布莱恩 Dylan O'Brien
       杰森·曼楚克斯 Jason Mantzoukas
       鲁伯特·弗兰德 Rupert Friend
       索菲·库克森 Sophie Cookson
       切瓦特·埃加福 Chiwetel Ejiofor
       托比·琼斯 Toby Jones
       沃利斯·戴 Wallis Day
       汤姆·休斯 Tom Hughes
       约翰内斯·豪克尔·约翰内森 Jóhannes Haukur Jóhannesson
       加绘·亚历山大 Kae Alexander
       利兹·凯尔 Liz Carr
       乔安娜·里贝罗 Joana Ribeiro
       纳比勒·埃卢比 Nabil Elouahabi
       拉菲拉·查普曼 Raffiella Chapman
       马克·弗莱施曼 Mark Fleischmann
       乔丹·A·纳什 Jordan A. Nash
       蒂利亚纳·布克丽瓦 Dilyana Bouklieva
       利昂·阿诺 Leon Annor

◎标  签 

◎简  介

  改编自D. Eric Maikranz所著小说《转世文献》(The Rein carnationist Papers),聚焦一个被自己前两世的记忆缠绕的男子,引出一群几乎长生不死、几世纪来多次转生的人,被称为“无限/无穷之人”,他们的组织叫“Cognomina”。为了打败想毁灭地球的邪恶力量,他们必须依靠这个精神分裂的男子,而后者先要搞清楚:他常做的奇怪的梦都是前世的记忆。



Video
ID           : 1
Format       : HEVC
Format/Info      : High Efficiency Video Coding
Format profile       : Main 10@L4@Main
Codec ID         : hev1
Codec ID/Info        : High Efficiency Video Coding
Duration         : 1 h 46 min
Bit rate         : 2 001 kb/s
Width        : 1 920 pixels
Height       : 804 pixels
Display aspect ratio     : 2.40:1
Frame rate mode      : Constant
Frame rate       : 23.976 (24000/1001) FPS
Color space      : YUV
Chroma subsampling       : 4:2:0
Bit depth        : 10 bits
Bits/(Pixel*Frame)       : 0.054
Stream size      : 1.49 GiB (90%)
Writing library      : x265 3.3+4-rarbg-30eb4de83092:[Linux][GCC 8.3.1][64 bit] 10bit
Encoding settings        : cpuid=1111039 / frame-threads=4 / wpp / no-pmode / no-pme / no-psnr / no-ssim / log-level=2 / input-csp=1 / input-res=1920x804 / interlace=0 / total-frames=0 / level-idc=0 / high-tier=1 / uhd-bd=0 / ref=4 / no-allow-non-conformance / no-repeat-headers / annexb / no-aud / no-hrd / info / hash=0 / no-temporal-layers / open-gop / min-keyint=23 / keyint=250 / gop-lookahead=0 / bframes=4 / b-adapt=2 / b-pyramid / bframe-bias=0 / rc-lookahead=25 / lookahead-slices=4 / scenecut=40 / hist-scenecut=0 / radl=0 / no-splice / no-intra-refresh / ctu=64 / min-cu-size=8 / rect / no-amp / max-tu-size=32 / tu-inter-depth=1 / tu-intra-depth=1 / limit-tu=0 / rdoq-level=2 / dynamic-rd=0.00 / no-ssim-rd / signhide / no-tskip / nr-intra=0 / nr-inter=0 / no-constrained-intra / strong-intra-smoothing / max-merge=3 / limit-refs=3 / limit-modes / me=3 / subme=3 / merange=57 / temporal-mvp / no-frame-dup / no-hme / weightp / no-weightb / no-analyze-src-pics / deblock=0:0 / no-sao / no-sao-non-deblock / rd=4 / selective-sao=0 / no-early-skip / rskip / no-fast-intra / no-tskip-fast / no-cu-lossless / no-b-intra / no-splitrd-skip / rdpenalty=0 / psy-rd=2.00 / psy-rdoq=1.00 / no-rd-refine / no-lossless / cbqpoffs=0 / crqpoffs=0 / rc=abr / bitrate=2000 / qcomp=0.60 / qpstep=4 / stats-write=0 / stats-read=2 / cplxblur=20.0 / qblur=0.5 / ipratio=1.40 / pbratio=1.30 / aq-mode=3 / aq-strength=1.00 / cutree / zone-count=0 / no-strict-cbr / qg-size=32 / no-rc-grain / qpmax=69 / qpmin=0 / no-const-vbv / sar=1 / overscan=0 / videoformat=5 / range=0 / colorprim=2 / transfer=2 / colormatrix=2 / chromaloc=0 / display-window=0 / cll=0,0 / min-luma=0 / max-luma=1023 / log2-max-poc-lsb=8 / vui-timing-info / vui-hrd-info / slices=1 / no-opt-qp-pps / no-opt-ref-list-length-pps / no-multi-pass-opt-rps / scenecut-bias=0.05 / hist-threshold=0.01 / no-opt-cu-delta-qp / no-aq-motion / no-hdr10 / no-hdr10-opt / no-dhdr10-opt / no-idr-recovery-sei / analysis-reuse-level=0 / analysis-save-reuse-level=0 / analysis-load-reuse-level=0 / scale-factor=0 / refine-intra=0 / refine-inter=0 / refine-mv=1 / refine-ctu-distortion=0 / no-limit-sao / ctu-info=0 / no-lowpass-dct / refine-analysis-type=0 / copy-pic=1 / max-ausize-factor=1.0 / no-dynamic-refine / no-single-sei / no-hevc-aq / no-svt / no-field / qp-adaptation-range=1.00 / no-scenecut-aware-qpconformance-window-offsets / right=0 / bottom=0
Encoded date         : UTC 2022-01-21 00:09:39
Tagged date      : UTC 2022-01-21 00:09:39
Codec configuration box      : hvcC

Audio
ID           : 2
Format       : AAC LC
Format/Info      : Advanced Audio Codec Low Complexity
Codec ID         : mp4a-40-2
Duration         : 1 h 46 min
Bit rate mode        : Constant
Bit rate         : 224 kb/s
Channel(s)       : 6 channels
Channel layout       : C L R Ls Rs LFE
Sampling rate        : 48.0 kHz
Frame rate       : 46.875 FPS (1024 SPF)
Compression mode     : Lossy
Stream size      : 170 MiB (10%)
Language         : English
Default          : Yes
Alternate group      : 1
Encoded date         : UTC 2022-01-21 00:09:39
Tagged date      : UTC 2022-01-21 00:09:39



悠悠MP4_MP4电影下载_无限 Infinite.2021.1080p.BluRay.x265-RARBG 1.66 GB
悠悠MP4_MP4电影下载_无限 Infinite.2021.1080p.BluRay.x265-RARBG 1.66 GB
悠悠MP4_MP4电影下载_无限 Infinite.2021.1080p.BluRay.x265-RARBG 1.66 GB

磁力链接

magnet:?xt=urn:btih:a40a37aaed7f311a4684fe7c311437864ce03086

上传的附件:
最新回复 (0)
返回
本站所有资源均收集自互联网,没有提供影片资源存储, 也未参与录制、上传,若本站收录的资源无意侵犯了您的权益, 请联系邮箱:gogoimgs#gmail.com(#=@)