[2021] [欧美] [科幻] [x264-720P] 末日故事 Armageddon.Tales.2021.720p.WEB.h264-PFa 1.64 GB

uump4 3月前 609

悠悠MP4_MP4电影下载_末日故事 Armageddon.Tales.2021.720p.WEB.h264-PFa 1.64 GB

◎片  名 末日故事 / 最后战疫(台) / Armageddon Tales
◎年  代 2021
◎产  地 美国 / 德国
◎类  别 动作 / 科幻
◎语  言 英语
◎上映日期 2021-02-22(美国)
◎IMDb评分  3.3/10 from 256 users
◎IMDb链接  https://www.imdb.com/title/tt13361358/
◎豆瓣评分 /10 from 0 users
◎豆瓣链接 https://movie.douban.com/subject/35384301/
◎片  长 93分钟
◎导  演 
◎编  剧 
◎主  演 塞马斯·F·萨金特 Seumas F. Sargent
       戴维·马斯特森 David Masterson
        Jeremy Dash

◎标  签 

◎简  介

  一种致命传染病蔓延全球,引发一连串战争和暴动,造成无数人死亡。社会崩坏后倖存下来的人们,开始过著争夺资源的生活。雪上加霜的是,危害性命的不仅疾病,不明生物也随之出现。唯有结伴同行奋力一搏,才有存活的可能。然而在信任丧失的末日后世界,面前的人类是敌是友,得到了最后一刻才能知晓。



Video
ID           : 1
Format       : AVC
Format/Info      : Advanced Video Codec
Format profile       : High@L4
Format settings      : CABAC / 4 Ref Frames
Format settings, CABAC       : Yes
Format settings, Reference frames    : 4 frames
Codec ID         : V_MPEG4/ISO/AVC
Duration         : 1 h 34 min
Bit rate         : 2 349 kb/s
Width        : 1 280 pixels
Height       : 720 pixels
Display aspect ratio     : 16:9
Frame rate mode      : Constant
Frame rate       : 23.976 (24000/1001) FPS
Color space      : YUV
Chroma subsampling       : 4:2:0
Bit depth        : 8 bits
Scan type        : Progressive
Bits/(Pixel*Frame)       : 0.106
Stream size      : 1.55 GiB (95%)
Writing library      : x264 core 157
Encoding settings        : cabac=1 / ref=4 / deblock=1:0:0 / analyse=0x3:0x113 / me=umh / subme=8 / psy=1 / psy_rd=1.00:0.00 / mixed_ref=1 / me_range=16 / chroma_me=1 / trellis=0 / 8x8dct=1 / cqm=0 / deadzone=21,11 / fast_pskip=1 / chroma_qp_offset=-2 / threads=1 / lookahead_threads=1 / sliced_threads=0 / nr=0 / decimate=1 / interlaced=0 / bluray_compat=0 / constrained_intra=0 / bframes=4 / b_pyramid=2 / b_adapt=2 / b_bias=0 / direct=3 / weightb=1 / open_gop=0 / weightp=2 / keyint=96 / keyint_min=48 / scenecut=0 / intra_refresh=0 / rc_lookahead=40 / rc=crf / mbtree=1 / crf=1.0 / qcomp=0.60 / qpmin=0 / qpmax=69 / qpstep=4 / vbv_maxrate=2400 / vbv_bufsize=1920 / crf_max=0.0 / nal_hrd=none / filler=0 / ip_ratio=1.41 / aq=1:1.00
Language         : English
Default          : Yes
Forced       : No

Audio
ID           : 2
Format       : AAC LC
Format/Info      : Advanced Audio Codec Low Complexity
Codec ID         : A_AAC-2
Duration         : 1 h 34 min
Bit rate         : 126 kb/s
Channel(s)       : 2 channels
Channel layout       : L R
Sampling rate        : 44.1 kHz
Frame rate       : 43.066 FPS (1024 SPF)
Compression mode     : Lossy
Delay relative to video      : -83 ms
Stream size      : 85.1 MiB (5%)
Language         : English
Default          : Yes
Forced       : No

Text
ID           : 3
Format       : UTF-8
Codec ID         : S_TEXT/UTF8
Codec ID/Info        : UTF-8 Plain Text
Duration         : 1 h 33 min
Bit rate         : 35 b/s
Count of elements        : 989
Stream size      : 24.3 KiB (0%)
Language         : English
Default          : No
Forced       : No



Screenshots:
悠悠MP4_MP4电影下载_末日故事 Armageddon.Tales.2021.720p.WEB.h264-PFa 1.64 GB
GOOD MOVIES KEEPS ROLLING

Predator Fucked Alien
...... proudly presents.......

-=  Armageddon.Tales.2021.720p.WEB.h264-PFa  =-
RELEASE INFO

Format...............: x264
FPS..................: 23.976
Audio................: AAC
Subs.................: English
Url..................: https://www.imdb.com/title/tt13361358

LOOKING FOR

- HQ sites .pl ,.ro ,.hu ,.no ,.cz sites, ask around if you cant find us :D
- 100mbit + dump for private usage
- TV-DVD / DVDR / x264 suplliers
- Experienced dvdrip / bluray rippers / encoders

GREETZ

WaLMaRT, DiRT

磁力链接

magnet:?xt=urn:btih:30438e40b54520697a2d653c7eed9e6629cb3f1e

上传的附件:
最新回复 (0)
返回
本站所有资源均收集自互联网,没有提供影片资源存储, 也未参与录制、上传,若本站收录的资源无意侵犯了您的权益, 请联系邮箱:gogoimgs#gmail.com(#=@)