[更早] [欧美] [爱情] [x265-1080P] 蜜月杀手 The.Honeymoon.Killers.1970.1080p.BluRay.x265-RARBG 1.68 GB

uump4 3月前 388

悠悠MP4_MP4电影下载_蜜月杀手 The.Honeymoon.Killers.1970.1080p.BluRay.x265-RARBG 1.68 GB

◎片  名 蜜月杀手 The Honeymoon Killers / Dear Martha
◎年  代 1969
◎产  地 美国
◎类  别 剧情 / 爱情 / 惊悚 / 犯罪
◎语  言 英语
◎上映日期 1969-09-08
◎IMDb评分  7.0/10 from 5053 users
◎IMDb链接  https://www.imdb.com/title/tt0064437/
◎豆瓣评分 7.3/10 from 734 users
◎豆瓣链接 https://movie.douban.com/subject/1298247/
◎片  长 108分钟 / USA: 115 分钟(original version)
◎导  演 伦纳德·卡斯特 Leonard Kastle
◎编  剧 伦纳德·卡斯特 Leonard Kastle
◎主  演 雪莉·斯托勒 Shirley Stoler
       托尼·洛·比安科 Tony Lo Bianco
       玛丽·简·希格比 Mary Jane Higby
       多莉丝·罗伯茨 Doris Roberts
       艾尔莎·瑞雯 Elsa Raven
       Dortha Duckworth Dortha Duckworth
       Barbara Cason Barbara Cason
       Marilyn Chris Marilyn Chris
       Eleanor Adams Eleanor Adams
       迈克尔·黑利 Michael Haley
       Diane Asselin Diane Asselin
       Guy Sorel Guy Sorel

◎标  签 

◎简  介

  肥胖的护士长玛莎(Shirley Stoler 饰)全部的生活不过是沉闷的工作加上照顾依赖感强烈但又时常抱怨的母亲,对所谓的爱情,她已不抱太大希望,直到她通过交友中心与一位纽约的小进口商雷(Tony Lo Bianco 饰)书信往来,两人确定了爱情关系,不久雷专程拜访,向玛莎借了一笔钱后匆匆折返。玛莎对雷念念不忘,找上门去之后才发现对方实际是谋财的感情骗子,雷让接受了自己骗子身份的玛莎以亲妹的名义出现,自此二人开始使用假名四处行骗,玛莎严加防范雷和那些受骗女人发生关系,并且对待她们的手段愈发凶狠,最终发展到了杀人的地步……                                    
      本片根据四十年代名噪一时的真实案件改编,此案被多次搬上银幕。编剧Leonard Kastle写好剧本之后在导演人选迟迟不能落实的情况下自执导筒,这也是他唯一的导演作品。



Video
ID           : 1
Format       : HEVC
Format/Info      : High Efficiency Video Coding
Format profile       : Main 10@L4@Main
Codec ID         : hev1
Codec ID/Info        : High Efficiency Video Coding
Duration         : 1 h 47 min
Bit rate         : 2 001 kb/s
Width        : 1 920 pixels
Height       : 1 036 pixels
Display aspect ratio     : 1.85:1
Frame rate mode      : Constant
Frame rate       : 23.976 (24000/1001) FPS
Color space      : YUV
Chroma subsampling       : 4:2:0
Bit depth        : 10 bits
Bits/(Pixel*Frame)       : 0.042
Stream size      : 1.51 GiB (90%)
Writing library      : x265 3.3+4-rarbg-30eb4de83092:[Linux][GCC 8.3.1][64 bit] 10bit
Encoding settings        : cpuid=1111039 / frame-threads=4 / wpp / no-pmode / no-pme / no-psnr / no-ssim / log-level=2 / input-csp=1 / input-res=1920x1036 / interlace=0 / total-frames=0 / level-idc=0 / high-tier=1 / uhd-bd=0 / ref=4 / no-allow-non-conformance / no-repeat-headers / annexb / no-aud / no-hrd / info / hash=0 / no-temporal-layers / open-gop / min-keyint=23 / keyint=250 / gop-lookahead=0 / bframes=4 / b-adapt=2 / b-pyramid / bframe-bias=0 / rc-lookahead=25 / lookahead-slices=4 / scenecut=40 / hist-scenecut=0 / radl=0 / no-splice / no-intra-refresh / ctu=64 / min-cu-size=8 / rect / no-amp / max-tu-size=32 / tu-inter-depth=1 / tu-intra-depth=1 / limit-tu=0 / rdoq-level=2 / dynamic-rd=0.00 / no-ssim-rd / signhide / no-tskip / nr-intra=0 / nr-inter=0 / no-constrained-intra / strong-intra-smoothing / max-merge=3 / limit-refs=3 / limit-modes / me=3 / subme=3 / merange=57 / temporal-mvp / no-frame-dup / no-hme / weightp / no-weightb / no-analyze-src-pics / deblock=0:0 / no-sao / no-sao-non-deblock / rd=4 / selective-sao=0 / no-early-skip / rskip / no-fast-intra / no-tskip-fast / no-cu-lossless / no-b-intra / no-splitrd-skip / rdpenalty=0 / psy-rd=2.00 / psy-rdoq=1.00 / no-rd-refine / no-lossless / cbqpoffs=0 / crqpoffs=0 / rc=abr / bitrate=2000 / qcomp=0.60 / qpstep=4 / stats-write=0 / stats-read=2 / cplxblur=20.0 / qblur=0.5 / ipratio=1.40 / pbratio=1.30 / aq-mode=3 / aq-strength=1.00 / cutree / zone-count=0 / no-strict-cbr / qg-size=32 / no-rc-grain / qpmax=69 / qpmin=0 / no-const-vbv / sar=1 / overscan=0 / videoformat=5 / range=0 / colorprim=2 / transfer=2 / colormatrix=2 / chromaloc=0 / display-window=0 / cll=0,0 / min-luma=0 / max-luma=1023 / log2-max-poc-lsb=8 / vui-timing-info / vui-hrd-info / slices=1 / no-opt-qp-pps / no-opt-ref-list-length-pps / no-multi-pass-opt-rps / scenecut-bias=0.05 / hist-threshold=0.01 / no-opt-cu-delta-qp / no-aq-motion / no-hdr10 / no-hdr10-opt / no-dhdr10-opt / no-idr-recovery-sei / analysis-reuse-level=0 / analysis-save-reuse-level=0 / analysis-load-reuse-level=0 / scale-factor=0 / refine-intra=0 / refine-inter=0 / refine-mv=1 / refine-ctu-distortion=0 / no-limit-sao / ctu-info=0 / no-lowpass-dct / refine-analysis-type=0 / copy-pic=1 / max-ausize-factor=1.0 / no-dynamic-refine / no-single-sei / no-hevc-aq / no-svt / no-field / qp-adaptation-range=1.00 / no-scenecut-aware-qpconformance-window-offsets / right=0 / bottom=0
Encoded date         : UTC 2022-01-20 06:42:07
Tagged date      : UTC 2022-01-20 06:42:07
Codec configuration box      : hvcC

Audio
ID           : 2
Format       : AAC LC
Format/Info      : Advanced Audio Codec Low Complexity
Codec ID         : mp4a-40-2
Duration         : 1 h 47 min
Bit rate mode        : Constant
Bit rate         : 224 kb/s
Channel(s)       : 1 channel
Channel layout       : C
Sampling rate        : 48.0 kHz
Frame rate       : 46.875 FPS (1024 SPF)
Compression mode     : Lossy
Stream size      : 173 MiB (10%)
Language         : English
Default          : Yes
Alternate group      : 1
Encoded date         : UTC 2022-01-20 06:42:07
Tagged date      : UTC 2022-01-20 06:42:07



悠悠MP4_MP4电影下载_蜜月杀手 The.Honeymoon.Killers.1970.1080p.BluRay.x265-RARBG 1.68 GB
悠悠MP4_MP4电影下载_蜜月杀手 The.Honeymoon.Killers.1970.1080p.BluRay.x265-RARBG 1.68 GB
悠悠MP4_MP4电影下载_蜜月杀手 The.Honeymoon.Killers.1970.1080p.BluRay.x265-RARBG 1.68 GB

磁力链接

magnet:?xt=urn:btih:c5b3cf06ef9354806bb22276c826a467c57e63d4

上传的附件:
最新回复 (0)
返回
本站所有资源均收集自互联网,没有提供影片资源存储, 也未参与录制、上传,若本站收录的资源无意侵犯了您的权益, 请联系邮箱:gogoimgs#gmail.com(#=@)