[2022] [欧美] [爱情] [x265-1080P] 皇室造型 The.Royal.Treatment.2022.1080p.NF.WEB-DL.x265.10bit.SDR.DDP5.1.Atmos-TEPES 4.33 GB

uump4 3月前 263

悠悠MP4_MP4电影下载_皇室造型 The.Royal.Treatment.2022.1080p.NF.WEB-DL.x265.10bit.SDR.DDP5.1.Atmos-TEPES 4.33 GB

◎片  名 皇室造型 The Royal Treatment / 皇家浪漫沙龙(港/台) / 皇室待遇
◎年  代 2022
◎产  地 美国
◎类  别 喜剧 / 爱情
◎语  言 英语
◎上映日期 2022-01-20(美国)
◎IMDb评分 
◎IMDb链接  https://www.imdb.com/title/tt13989030/
◎豆瓣评分 /10 from 0 users
◎豆瓣链接 https://movie.douban.com/subject/35342059/
◎片  长 
◎导  演 里克·雅各布森 Rick Jacobson
◎编  剧 
◎主  演 劳拉·马兰洛 Laura Marano
       梅纳·玛索德 Mena Massoud

◎标  签 

◎简  介

  伊莎贝拉经营着自己的沙龙,敢于表达自己内心的想法,而托马斯王子管理着自己的国家,并且即将成婚,但却只是出于职责而非爱情。伊丝和她的造型师伙伴们获得千载难逢的机会,为皇室婚礼做发型,在此期间她和托马斯王子意识到,要掌控自己的命运,就要跟随自己的心。



Video
ID           : 1
Format       : HEVC
Format/Info      : High Efficiency Video Coding
Format profile       : Main 10@L4@Main
Codec ID         : V_MPEGH/ISO/HEVC
Duration         : 1 h 37 min
Bit rate         : 5 585 kb/s
Width        : 1 920 pixels
Height       : 1 080 pixels
Display aspect ratio     : 16:9
Frame rate mode      : Constant
Frame rate       : 24.000 FPS
Color space      : YUV
Chroma subsampling       : 4:2:0
Bit depth        : 10 bits
Bits/(Pixel*Frame)       : 0.112
Stream size      : 3.80 GiB (88%)
Default          : Yes
Forced       : No
Color range      : Limited
Color primaries      : BT.709
Transfer characteristics     : BT.709
Matrix coefficients      : BT.709

Audio
ID           : 2
Format       : E-AC-3 JOC
Format/Info      : Enhanced AC-3 with Joint Object Coding
Commercial name      : Dolby Digital Plus with Dolby Atmos
Codec ID         : A_EAC3
Duration         : 1 h 37 min
Bit rate mode        : Constant
Bit rate         : 768 kb/s
Channel(s)       : 6 channels
Channel layout       : L R C LFE Ls Rs
Sampling rate        : 48.0 kHz
Frame rate       : 31.250 FPS (1536 SPF)
Compression mode     : Lossy
Stream size      : 536 MiB (12%)
Language         : English
Service kind         : Complete Main
Default          : Yes
Forced       : No
Complexity index     : 16
Number of dynamic objects    : 15
Bed channel count        : 1 channel
Bed channel configuration    : LFE

Text #1
ID           : 3
Format       : UTF-8
Codec ID         : S_TEXT/UTF8
Codec ID/Info        : UTF-8 Plain Text
Duration         : 1 h 25 min
Bit rate         : 0 b/s
Count of elements        : 22
Stream size      : 609 Bytes (0%)
Title        : Forced
Language         : English
Default          : Yes
Forced       : Yes

Text #2
ID           : 4
Format       : UTF-8
Codec ID         : S_TEXT/UTF8
Codec ID/Info        : UTF-8 Plain Text
Duration         : 1 h 28 min
Bit rate         : 72 b/s
Count of elements        : 1453
Stream size      : 46.8 KiB (0%)
Language         : English
Default          : No
Forced       : No

Text #3
ID           : 5
Format       : UTF-8
Codec ID         : S_TEXT/UTF8
Codec ID/Info        : UTF-8 Plain Text
Duration         : 1 h 32 min
Bit rate         : 82 b/s
Count of elements        : 1677
Stream size      : 55.9 KiB (0%)
Title        : SDH
Language         : English
Default          : No
Forced       : No

Text #4
ID           : 6
Format       : UTF-8
Codec ID         : S_TEXT/UTF8
Codec ID/Info        : UTF-8 Plain Text
Duration         : 1 h 34 min
Bit rate         : 112 b/s
Count of elements        : 1432
Stream size      : 78.5 KiB (0%)
Language         : Arabic
Default          : No
Forced       : No

Text #5
ID           : 7
Format       : UTF-8
Codec ID         : S_TEXT/UTF8
Codec ID/Info        : UTF-8 Plain Text
Duration         : 1 h 34 min
Bit rate         : 63 b/s
Count of elements        : 1354
Stream size      : 44.2 KiB (0%)
Language         : Czech
Default          : No
Forced       : No

Text #6
ID           : 8
Format       : UTF-8
Codec ID         : S_TEXT/UTF8
Codec ID/Info        : UTF-8 Plain Text
Duration         : 1 h 34 min
Bit rate         : 59 b/s
Count of elements        : 1320
Stream size      : 41.6 KiB (0%)
Language         : Danish
Default          : No
Forced       : No

Text #7
ID           : 9
Format       : UTF-8
Codec ID         : S_TEXT/UTF8
Codec ID/Info        : UTF-8 Plain Text
Duration         : 1 h 34 min
Bit rate         : 59 b/s
Count of elements        : 1389
Stream size      : 41.3 KiB (0%)
Language         : German
Default          : No
Forced       : No

Text #8
ID           : 10
Format       : UTF-8
Codec ID         : S_TEXT/UTF8
Codec ID/Info        : UTF-8 Plain Text
Duration         : 1 h 31 min
Bit rate         : 103 b/s
Count of elements        : 1389
Stream size      : 69.2 KiB (0%)
Language         : Greek
Default          : No
Forced       : No

Text #9
ID           : 11
Format       : UTF-8
Codec ID         : S_TEXT/UTF8
Codec ID/Info        : UTF-8 Plain Text
Duration         : 1 h 34 min
Bit rate         : 60 b/s
Count of elements        : 1388
Stream size      : 42.3 KiB (0%)
Language         : Spanish
Default          : No
Forced       : No

Text #10
ID           : 12
Format       : UTF-8
Codec ID         : S_TEXT/UTF8
Codec ID/Info        : UTF-8 Plain Text
Duration         : 1 h 34 min
Bit rate         : 61 b/s
Count of elements        : 1355
Stream size      : 42.7 KiB (0%)
Title        : European
Language         : Spanish
Default          : No
Forced       : No

Text #11
ID           : 13
Format       : UTF-8
Codec ID         : S_TEXT/UTF8
Codec ID/Info        : UTF-8 Plain Text
Duration         : 1 h 34 min
Bit rate         : 59 b/s
Count of elements        : 1152
Stream size      : 41.6 KiB (0%)
Language         : Finnish
Default          : No
Forced       : No

Text #12
ID           : 14
Format       : UTF-8
Codec ID         : S_TEXT/UTF8
Codec ID/Info        : UTF-8 Plain Text
Duration         : 1 h 34 min
Bit rate         : 60 b/s
Count of elements        : 1278
Stream size      : 41.9 KiB (0%)
Language         : French
Default          : No
Forced       : No

Text #13
ID           : 15
Format       : UTF-8
Codec ID         : S_TEXT/UTF8
Codec ID/Info        : UTF-8 Plain Text
Duration         : 1 h 34 min
Bit rate         : 102 b/s
Count of elements        : 1404
Stream size      : 71.3 KiB (0%)
Language         : Hebrew
Default          : No
Forced       : No

Text #14
ID           : 16
Format       : UTF-8
Codec ID         : S_TEXT/UTF8
Codec ID/Info        : UTF-8 Plain Text
Duration         : 1 h 34 min
Bit rate         : 53 b/s
Count of elements        : 1404
Stream size      : 37.5 KiB (0%)
Language         : Croatian
Default          : No
Forced       : No

Text #15
ID           : 17
Format       : UTF-8
Codec ID         : S_TEXT/UTF8
Codec ID/Info        : UTF-8 Plain Text
Duration         : 1 h 34 min
Bit rate         : 61 b/s
Count of elements        : 1362
Stream size      : 43.1 KiB (0%)
Language         : Hungarian
Default          : No
Forced       : No

Text #16
ID           : 18
Format       : UTF-8
Codec ID         : S_TEXT/UTF8
Codec ID/Info        : UTF-8 Plain Text
Duration         : 1 h 34 min
Bit rate         : 62 b/s
Count of elements        : 1414
Stream size      : 43.5 KiB (0%)
Language         : Indonesian
Default          : No
Forced       : No

Text #17
ID           : 19
Format       : UTF-8
Codec ID         : S_TEXT/UTF8
Codec ID/Info        : UTF-8 Plain Text
Duration         : 1 h 34 min
Bit rate         : 59 b/s
Count of elements        : 1376
Stream size      : 41.4 KiB (0%)
Language         : Italian
Default          : No
Forced       : No

Text #18
ID           : 20
Format       : UTF-8
Codec ID         : S_TEXT/UTF8
Codec ID/Info        : UTF-8 Plain Text
Duration         : 1 h 34 min
Bit rate         : 66 b/s
Count of elements        : 1556
Stream size      : 46.3 KiB (0%)
Language         : Japanese
Default          : No
Forced       : No

Text #19
ID           : 21
Format       : UTF-8
Codec ID         : S_TEXT/UTF8
Codec ID/Info        : UTF-8 Plain Text
Duration         : 1 h 34 min
Bit rate         : 82 b/s
Count of elements        : 1439
Stream size      : 57.3 KiB (0%)
Language         : Korean
Default          : No
Forced       : No

Text #20
ID           : 22
Format       : UTF-8
Codec ID         : S_TEXT/UTF8
Codec ID/Info        : UTF-8 Plain Text
Duration         : 1 h 34 min
Bit rate         : 58 b/s
Count of elements        : 1395
Stream size      : 40.8 KiB (0%)
Language         : Malay
Default          : No
Forced       : No

Text #21
ID           : 23
Format       : UTF-8
Codec ID         : S_TEXT/UTF8
Codec ID/Info        : UTF-8 Plain Text
Duration         : 1 h 34 min
Bit rate         : 59 b/s
Count of elements        : 1285
Stream size      : 41.1 KiB (0%)
Language         : Norwegian Bokmal
Default          : No
Forced       : No

Text #22
ID           : 24
Format       : UTF-8
Codec ID         : S_TEXT/UTF8
Codec ID/Info        : UTF-8 Plain Text
Duration         : 1 h 34 min
Bit rate         : 59 b/s
Count of elements        : 1316
Stream size      : 41.5 KiB (0%)
Language         : Dutch
Default          : No
Forced       : No

Text #23
ID           : 25
Format       : UTF-8
Codec ID         : S_TEXT/UTF8
Codec ID/Info        : UTF-8 Plain Text
Duration         : 1 h 34 min
Bit rate         : 59 b/s
Count of elements        : 1372
Stream size      : 41.3 KiB (0%)
Language         : Polish
Default          : No
Forced       : No

Text #24
ID           : 26
Format       : UTF-8
Codec ID         : S_TEXT/UTF8
Codec ID/Info        : UTF-8 Plain Text
Duration         : 1 h 34 min
Bit rate         : 65 b/s
Count of elements        : 1412
Stream size      : 45.2 KiB (0%)
Language         : Portuguese
Default          : No
Forced       : No

Text #25
ID           : 27
Format       : UTF-8
Codec ID         : S_TEXT/UTF8
Codec ID/Info        : UTF-8 Plain Text
Duration         : 1 h 34 min
Bit rate         : 59 b/s
Count of elements        : 1414
Stream size      : 41.1 KiB (0%)
Title        : Brazilian
Language         : Portuguese
Default          : No
Forced       : No

Text #26
ID           : 28
Format       : UTF-8
Codec ID         : S_TEXT/UTF8
Codec ID/Info        : UTF-8 Plain Text
Duration         : 1 h 34 min
Bit rate         : 65 b/s
Count of elements        : 1373
Stream size      : 45.7 KiB (0%)
Language         : Romanian
Default          : No
Forced       : No

Text #27
ID           : 29
Format       : UTF-8
Codec ID         : S_TEXT/UTF8
Codec ID/Info        : UTF-8 Plain Text
Duration         : 1 h 34 min
Bit rate         : 98 b/s
Count of elements        : 1411
Stream size      : 68.3 KiB (0%)
Language         : Russian
Default          : No
Forced       : No

Text #28
ID           : 30
Format       : UTF-8
Codec ID         : S_TEXT/UTF8
Codec ID/Info        : UTF-8 Plain Text
Duration         : 1 h 34 min
Bit rate         : 60 b/s
Count of elements        : 1310
Stream size      : 42.0 KiB (0%)
Language         : Swedish
Default          : No
Forced       : No

Text #29
ID           : 31
Format       : UTF-8
Codec ID         : S_TEXT/UTF8
Codec ID/Info        : UTF-8 Plain Text
Duration         : 1 h 34 min
Bit rate         : 170 b/s
Count of elements        : 1428
Stream size      : 119 KiB (0%)
Language         : Thai
Default          : No
Forced       : No

Text #30
ID           : 32
Format       : UTF-8
Codec ID         : S_TEXT/UTF8
Codec ID/Info        : UTF-8 Plain Text
Duration         : 1 h 34 min
Bit rate         : 63 b/s
Count of elements        : 1286
Stream size      : 44.3 KiB (0%)
Language         : Turkish
Default          : No
Forced       : No

Text #31
ID           : 33
Format       : UTF-8
Codec ID         : S_TEXT/UTF8
Codec ID/Info        : UTF-8 Plain Text
Duration         : 1 h 34 min
Bit rate         : 100 b/s
Count of elements        : 1425
Stream size      : 70.0 KiB (0%)
Language         : Ukrainian
Default          : No
Forced       : No

Text #32
ID           : 34
Format       : UTF-8
Codec ID         : S_TEXT/UTF8
Codec ID/Info        : UTF-8 Plain Text
Duration         : 1 h 34 min
Bit rate         : 95 b/s
Count of elements        : 1415
Stream size      : 66.2 KiB (0%)
Language         : Vietnamese
Default          : No
Forced       : No

Text #33
ID           : 35
Format       : UTF-8
Codec ID         : S_TEXT/UTF8
Codec ID/Info        : UTF-8 Plain Text
Duration         : 1 h 34 min
Bit rate         : 71 b/s
Count of elements        : 1419
Stream size      : 49.6 KiB (0%)
Title        : Simplified
Language         : Chinese
Default          : No
Forced       : No

Text #34
ID           : 36
Format       : UTF-8
Codec ID         : S_TEXT/UTF8
Codec ID/Info        : UTF-8 Plain Text
Duration         : 1 h 34 min
Bit rate         : 63 b/s
Count of elements        : 1415
Stream size      : 44.2 KiB (0%)
Title        : Traditional
Language         : Chinese
Default          : No
Forced       : No



悠悠MP4_MP4电影下载_皇室造型 The.Royal.Treatment.2022.1080p.NF.WEB-DL.x265.10bit.SDR.DDP5.1.Atmos-TEPES 4.33 GB
悠悠MP4_MP4电影下载_皇室造型 The.Royal.Treatment.2022.1080p.NF.WEB-DL.x265.10bit.SDR.DDP5.1.Atmos-TEPES 4.33 GB
悠悠MP4_MP4电影下载_皇室造型 The.Royal.Treatment.2022.1080p.NF.WEB-DL.x265.10bit.SDR.DDP5.1.Atmos-TEPES 4.33 GB

磁力链接

magnet:?xt=urn:btih:1fad66283dca6afe4ba961102cb7433af93c25f9

上传的附件:
最新回复 (0)
返回
本站所有资源均收集自互联网,没有提供影片资源存储, 也未参与录制、上传,若本站收录的资源无意侵犯了您的权益, 请联系邮箱:gogoimgs#gmail.com(#=@)