[2021] [欧美] [其他] [x264-720P] 魔法满屋 Encanto.2021.720p.BluRay.x264-KNiVES 3.50 GB

uump4 3月前 450

悠悠MP4_MP4电影下载_魔法满屋 Encanto.2021.720p.BluRay.x264-KNiVES 3.50 GB

◎片  名 魔法满屋 Encanto / 奇幻魔法屋(港) / 音乐的魔法
◎年  代 2021
◎产  地 美国
◎类  别 动画 / 歌舞 / 奇幻
◎语  言 英语 / 西班牙语
◎上映日期 2022-01-07(中国大陆) / 2021-11-24(美国) / 2021-12-24(美国网络)
◎IMDb评分  7.3/10 from 97515 users
◎IMDb链接  https://www.imdb.com/title/tt2953050/
◎豆瓣评分 6.5/10 from 29397 users
◎豆瓣链接 https://movie.douban.com/subject/35134724/
◎片  长 102分钟
◎导  演 杰拉德·布什 Jared Bush
       拜伦·霍华德 Byron Howard
       查里斯·卡斯特罗·史密斯 Charise Castro Smith
◎编  剧 查里斯·卡斯特罗·史密斯 Charise Castro Smith
       杰拉德·布什 Jared Bush
       拜伦·霍华德 Byron Howard
       杰森·汉德 Jason Hand
       南茜·克鲁斯 Nancy Kruse
       林-曼努尔·米兰达 Lin-Manuel Miranda
◎主  演 斯蒂芬妮·比翠丝 Stephanie Beatriz
       玛丽亚·塞西莉亚·波特罗 María Cecilia Botero
       黛安·格雷罗 Diane Guerrero
       约翰·雷吉扎莫 John Leguizamo
       杰西卡·达罗 Jessica Darrow
       毛里西奥·卡斯蒂略  Mauro Castillo
       安吉·塞佩达 Angie Cepeda
       卡萝莱娜·盖坦 Carolina Gaitan
       维尔摩·瓦尔德拉玛 Wilmer Valderrama
       莱齐·费利兹 Rhenzy Feliz
       拉维·卡伯特·科尼尔斯 Ravi Cabot-Conyers
       爱达莎 Adassa
       胡安·路易斯·隆东纽·阿利阿斯 Maluma
       Rose Portillo Rose Portillo
       胡安·卡斯塔诺 Juan Castano
       埃克托尔·埃利亚斯 Hector Elias
       艾伦·图代克 Alan Tudyk
       欧嘉·梅雷迪斯 Olga Merediz
       辣目洋子 Jackie Li

◎标  签 

◎简  介

  讲述一个非同寻常的家庭——马利加家族的故事,他们隐居在哥伦比亚的山区一座神奇的房子里,生活在一个充满活力的小镇:一个奇妙的、充满魅力的地方,奇迹谷。奇迹谷的魔力使这个家庭的每个孩子都拥有独特魔法天赋,从超强大神力到治愈他人的能力……除了米拉贝(斯蒂芬妮·比翠丝 Stephanie Beatriz 配音)。                                    
      但是,当她发现围绕奇迹谷的魔法处于危险之中时,米拉贝下定决心,她这唯一无魔法天赋的马利加人,将成为这个特殊家庭的希望。

◎获奖情况

  第79届金球奖 (2022)
  电影类 最佳动画长片
  电影类 最佳原创配乐(提名)
  吉曼·法兰科电影类 最佳原创歌曲(提名)
  林-曼努尔·米兰达



Video
ID           : 1
Format       : AVC
Format/Info      : Advanced Video Codec
Format profile       : High@L4.1
Format settings      : CABAC / 8 Ref Frames
Format settings, CABAC       : Yes
Format settings, Reference frames    : 8 frames
Codec ID         : V_MPEG4/ISO/AVC
Duration         : 1 h 42 min
Bit rate         : 3 825 kb/s
Width        : 1 280 pixels
Height       : 694 pixels
Display aspect ratio     : 1.85:1
Frame rate mode      : Constant
Frame rate       : 23.976 (24000/1001) FPS
Color space      : YUV
Chroma subsampling       : 4:2:0
Bit depth        : 8 bits
Scan type        : Progressive
Bits/(Pixel*Frame)       : 0.180
Stream size      : 2.73 GiB (78%)
Writing library      : x264 core 164 r3081 19856cc
Encoding settings        : cabac=1 / ref=8 / deblock=1:-3:-3 / analyse=0x3:0x133 / me=umh / subme=9 / psy=1 / psy_rd=1.00:0.00 / mixed_ref=1 / me_range=16 / chroma_me=1 / trellis=2 / 8x8dct=1 / cqm=0 / deadzone=21,11 / fast_pskip=0 / chroma_qp_offset=-2 / threads=22 / lookahead_threads=1 / sliced_threads=0 / nr=0 / decimate=1 / interlaced=0 / bluray_compat=0 / constrained_intra=0 / bframes=3 / b_pyramid=2 / b_adapt=2 / b_bias=0 / direct=3 / weightb=1 / open_gop=0 / weightp=2 / keyint=250 / keyint_min=23 / scenecut=40 / intra_refresh=0 / rc_lookahead=60 / rc=crf / mbtree=1 / crf=17.0 / qcomp=0.60 / qpmin=0 / qpmax=69 / qpstep=4 / ip_ratio=1.40 / aq=1:1.00
Language         : English
Default          : Yes
Forced       : No

Audio #1
ID           : 2
Format       : AC-3
Format/Info      : Audio Coding 3
Commercial name      : Dolby Digital
Codec ID         : A_AC3
Duration         : 1 h 42 min
Bit rate mode        : Constant
Bit rate         : 640 kb/s
Channel(s)       : 6 channels
Channel layout       : L R C LFE Ls Rs
Sampling rate        : 48.0 kHz
Frame rate       : 31.250 FPS (1536 SPF)
Compression mode     : Lossy
Stream size      : 467 MiB (13%)
Language         : English
Service kind         : Complete Main
Default          : Yes
Forced       : No

Audio #2
ID           : 3
Format       : AAC LC
Format/Info      : Advanced Audio Codec Low Complexity
Codec ID         : A_AAC-2
Duration         : 1 h 42 min
Bit rate         : 121 kb/s
Channel(s)       : 2 channels
Channel layout       : L R
Sampling rate        : 48.0 kHz
Frame rate       : 46.875 FPS (1024 SPF)
Compression mode     : Lossy
Delay relative to video      : 9 ms
Stream size      : 88.4 MiB (2%)
Title        : commentary
Language         : English
Default          : No
Forced       : No

Text #1
ID           : 4
ID in the original source medium     : 4608 (0x1200)
Format       : PGS
Muxing mode      : zlib
Codec ID         : S_HDMV/PGS
Codec ID/Info        : Picture based subtitle format used on BDs/HD-DVDs
Duration         : 1 h 36 min
Bit rate         : 49.7 kb/s
Count of elements        : 3674
Stream size      : 34.3 MiB (1%)
Language         : English
Default          : No
Forced       : No
Original source medium       : Blu-ray

Text #2
ID           : 5
ID in the original source medium     : 4609 (0x1201)
Format       : PGS
Muxing mode      : zlib
Codec ID         : S_HDMV/PGS
Codec ID/Info        : Picture based subtitle format used on BDs/HD-DVDs
Duration         : 1 h 40 min
Bit rate         : 33.0 kb/s
Count of elements        : 2584
Stream size      : 23.7 MiB (1%)
Language         : German
Default          : No
Forced       : No
Original source medium       : Blu-ray

Text #3
ID           : 6
ID in the original source medium     : 4610 (0x1202)
Format       : PGS
Muxing mode      : zlib
Codec ID         : S_HDMV/PGS
Codec ID/Info        : Picture based subtitle format used on BDs/HD-DVDs
Duration         : 1 h 40 min
Bit rate         : 31.0 kb/s
Count of elements        : 2378
Stream size      : 22.3 MiB (1%)
Language         : Spanish
Default          : No
Forced       : No
Original source medium       : Blu-ray

Text #4
ID           : 7
ID in the original source medium     : 4611 (0x1203)
Format       : PGS
Muxing mode      : zlib
Codec ID         : S_HDMV/PGS
Codec ID/Info        : Picture based subtitle format used on BDs/HD-DVDs
Duration         : 1 h 40 min
Bit rate         : 31.0 kb/s
Count of elements        : 1946
Stream size      : 22.3 MiB (1%)
Language         : Danish
Default          : No
Forced       : No
Original source medium       : Blu-ray

Text #5
ID           : 8
ID in the original source medium     : 4612 (0x1204)
Format       : PGS
Muxing mode      : zlib
Codec ID         : S_HDMV/PGS
Codec ID/Info        : Picture based subtitle format used on BDs/HD-DVDs
Duration         : 1 h 40 min
Bit rate         : 32.0 kb/s
Count of elements        : 2416
Stream size      : 23.0 MiB (1%)
Language         : Finnish
Default          : No
Forced       : No
Original source medium       : Blu-ray

Text #6
ID           : 9
ID in the original source medium     : 4613 (0x1205)
Format       : PGS
Muxing mode      : zlib
Codec ID         : S_HDMV/PGS
Codec ID/Info        : Picture based subtitle format used on BDs/HD-DVDs
Duration         : 1 h 40 min
Bit rate         : 30.0 kb/s
Count of elements        : 2402
Stream size      : 21.6 MiB (1%)
Language         : Norwegian
Default          : No
Forced       : No
Original source medium       : Blu-ray

Text #7
ID           : 10
ID in the original source medium     : 4614 (0x1206)
Format       : PGS
Muxing mode      : zlib
Codec ID         : S_HDMV/PGS
Codec ID/Info        : Picture based subtitle format used on BDs/HD-DVDs
Duration         : 1 h 40 min
Bit rate         : 27.5 kb/s
Count of elements        : 2050
Stream size      : 19.8 MiB (1%)
Language         : Swedish
Default          : No
Forced       : No
Original source medium       : Blu-ray

Text #8
ID           : 11
ID in the original source medium     : 4615 (0x1207)
Format       : PGS
Muxing mode      : zlib
Codec ID         : S_HDMV/PGS
Codec ID/Info        : Picture based subtitle format used on BDs/HD-DVDs
Duration         : 1 h 24 min
Bit rate         : 229 kb/s
Count of elements        : 3597
Stream size      : 139 MiB (4%)
Language         : English
Default          : No
Forced       : No
Original source medium       : Blu-ray

Text #9
ID           : 12
ID in the original source medium     : 4616 (0x1208)
Format       : PGS
Muxing mode      : zlib
Codec ID         : S_HDMV/PGS
Codec ID/Info        : Picture based subtitle format used on BDs/HD-DVDs
Duration         : 1 h 24 min
Bit rate         : 93.4 kb/s
Count of elements        : 3134
Stream size      : 56.4 MiB (2%)
Language         : German
Default          : No
Forced       : No
Original source medium       : Blu-ray

Text #10
ID           : 13
ID in the original source medium     : 4617 (0x1209)
Format       : PGS
Muxing mode      : zlib
Codec ID         : S_HDMV/PGS
Codec ID/Info        : Picture based subtitle format used on BDs/HD-DVDs
Duration         : 1 h 24 min
Bit rate         : 73.3 kb/s
Count of elements        : 2728
Stream size      : 44.3 MiB (1%)
Language         : Spanish
Default          : No
Forced       : No
Original source medium       : Blu-ray

Text #11
ID           : 14
ID in the original source medium     : 4618 (0x120A)
Format       : PGS
Muxing mode      : zlib
Codec ID         : S_HDMV/PGS
Codec ID/Info        : Picture based subtitle format used on BDs/HD-DVDs
Duration         : 1 h 24 min
Bit rate         : 97.7 kb/s
Count of elements        : 3114
Stream size      : 59.0 MiB (2%)
Language         : Danish
Default          : No
Forced       : No
Original source medium       : Blu-ray

Text #12
ID           : 15
ID in the original source medium     : 4619 (0x120B)
Format       : PGS
Muxing mode      : zlib
Codec ID         : S_HDMV/PGS
Codec ID/Info        : Picture based subtitle format used on BDs/HD-DVDs
Duration         : 1 h 24 min
Bit rate         : 63.1 kb/s
Count of elements        : 2479
Stream size      : 38.1 MiB (1%)
Language         : Finnish
Default          : No
Forced       : No
Original source medium       : Blu-ray

Text #13
ID           : 16
ID in the original source medium     : 4620 (0x120C)
Format       : PGS
Muxing mode      : zlib
Codec ID         : S_HDMV/PGS
Codec ID/Info        : Picture based subtitle format used on BDs/HD-DVDs
Duration         : 1 h 24 min
Bit rate         : 86.0 kb/s
Count of elements        : 3068
Stream size      : 51.9 MiB (1%)
Language         : Norwegian
Default          : No
Forced       : No
Original source medium       : Blu-ray

Text #14
ID           : 17
ID in the original source medium     : 4621 (0x120D)
Format       : PGS
Muxing mode      : zlib
Codec ID         : S_HDMV/PGS
Codec ID/Info        : Picture based subtitle format used on BDs/HD-DVDs
Duration         : 1 h 24 min
Bit rate         : 93.7 kb/s
Count of elements        : 3001
Stream size      : 56.6 MiB (2%)
Language         : Swedish
Default          : No
Forced       : No
Original source medium       : Blu-ray

Menu
00:00:00.000         : en:Chapter 01
00:03:57.654         : en:Chapter 02
00:09:49.297         : en:Chapter 03
00:15:07.573         : en:Chapter 04
00:16:54.889         : en:Chapter 05
00:21:48.807         : en:Chapter 06
00:24:54.910         : en:Chapter 07
00:28:58.612         : en:Chapter 08
00:31:10.619         : en:Chapter 09
00:38:35.104         : en:Chapter 10
00:44:57.820         : en:Chapter 11
00:53:39.967         : en:Chapter 12
01:01:22.345         : en:Chapter 13
01:06:28.067         : en:Chapter 14
01:11:41.255         : en:Chapter 15
01:16:38.135         : en:Chapter 16
01:24:25.394         : en:Chapter 17
01:31:02.207         : en:Chapter 18



Screenshots:
悠悠MP4_MP4电影下载_魔法满屋 Encanto.2021.720p.BluRay.x264-KNiVES 3.50 GB
KNiVES cuts you with

Encanto (2021)

date.......: today
Reso.......: 1280*694px
Biterate...: 3 824 kb/s
Source.....: 24,3 Mb/s
sound......: Dolby Digital
check......: https://www.imdb.com/title/tt2953050/

磁力链接

magnet:?xt=urn:btih:92c991144c9bc8b72c5f75050467411c146bd9e2

上传的附件:
最新回复 (0)
返回
本站所有资源均收集自互联网,没有提供影片资源存储, 也未参与录制、上传,若本站收录的资源无意侵犯了您的权益, 请联系邮箱:gogoimgs#gmail.com(#=@)