[2020] [欧美] [犯罪] [x264-720P] 黑会社 Mafia.Inc.2019.720p.BluRay.x264-JustWatch 6.34 GB

uump4 3月前 810

悠悠MP4_MP4电影下载_黑会社 Mafia.Inc.2019.720p.BluRay.x264-JustWatch 6.34 GB

◎片  名 黑会社 Mafia Inc.
◎年  代 2020
◎产  地 加拿大
◎类  别 剧情 / 犯罪
◎语  言 英语
◎上映日期 2020-01-14(加拿大)
◎IMDb评分  6.9/10 from 1098 users
◎IMDb链接  https://www.imdb.com/title/tt6980960/
◎豆瓣评分 /10 from 0 users
◎豆瓣链接 https://movie.douban.com/subject/34940635/
◎片  长 135分钟
◎导  演 
◎编  剧 
◎主  演 克里斯蒂娜·罗塞托 Cristina Rosato
       赛尔乔·卡斯特利托 Sergio Castellitto
       本兹·安托万 Benz Antoine
       古奇·鲍埃 Gouchy Boy
       多梅尼克·迪罗萨 Domenic Di Rosa
       帕斯卡尔·佩塔尔迪 Rafael Petardi

◎标  签 

◎简  介

  文森特为黑手党教父提供服务与忠诚,他与教父长子本会成为兄弟,但随着投资桥梁事件的发生,一切都变了,教父不相信文森特,长子嫉妒文森特,多方矛盾爆发了。



Video
ID           : 1
Format       : AVC
Format/Info      : Advanced Video Codec
Format profile       : High@L4.1
Format settings      : CABAC / 8 Ref Frames
Format settings, CABAC       : Yes
Format settings, Reference frames    : 8 frames
Codec ID         : V_MPEG4/ISO/AVC
Duration         : 2 h 23 min
Bit rate         : 5 668 kb/s
Width        : 1 280 pixels
Height       : 536 pixels
Display aspect ratio     : 2.40:1
Frame rate mode      : Constant
Frame rate       : 23.976 (24000/1001) FPS
Color space      : YUV
Chroma subsampling       : 4:2:0
Bit depth        : 8 bits
Scan type        : Progressive
Bits/(Pixel*Frame)       : 0.345
Stream size      : 5.68 GiB (89%)
Writing library      : x264 core 164 r3081 19856cc
Encoding settings        : cabac=1 / ref=8 / deblock=1:-3:-3 / analyse=0x3:0x133 / me=umh / subme=9 / psy=1 / psy_rd=1.00:0.00 / mixed_ref=1 / me_range=16 / chroma_me=1 / trellis=2 / 8x8dct=1 / cqm=0 / deadzone=21,11 / fast_pskip=0 / chroma_qp_offset=-2 / threads=17 / lookahead_threads=1 / sliced_threads=0 / nr=0 / decimate=1 / interlaced=0 / bluray_compat=0 / constrained_intra=0 / bframes=3 / b_pyramid=2 / b_adapt=2 / b_bias=0 / direct=3 / weightb=1 / open_gop=0 / weightp=2 / keyint=250 / keyint_min=23 / scenecut=40 / intra_refresh=0 / rc_lookahead=60 / rc=crf / mbtree=1 / crf=17.0 / qcomp=0.60 / qpmin=0 / qpmax=69 / qpstep=4 / ip_ratio=1.40 / aq=1:1.00
Language         : English
Default          : Yes
Forced       : No

Audio
ID           : 2
Format       : AC-3
Format/Info      : Audio Coding 3
Commercial name      : Dolby Digital
Codec ID         : A_AC3
Duration         : 2 h 23 min
Bit rate mode        : Constant
Bit rate         : 640 kb/s
Channel(s)       : 6 channels
Channel layout       : L R C LFE Ls Rs
Sampling rate        : 48.0 kHz
Frame rate       : 31.250 FPS (1536 SPF)
Compression mode     : Lossy
Stream size      : 656 MiB (10%)
Language         : English
Service kind         : Complete Main
Default          : Yes
Forced       : No

Text #1
ID           : 3
Format       : PGS
Muxing mode      : zlib
Codec ID         : S_HDMV/PGS
Codec ID/Info        : Picture based subtitle format used on BDs/HD-DVDs
Duration         : 2 h 18 min
Bit rate         : 17.2 kb/s
Count of elements        : 2074
Stream size      : 17.1 MiB (0%)
Language         : English
Default          : Yes
Forced       : No

Text #2
ID           : 4
Format       : PGS
Muxing mode      : zlib
Codec ID         : S_HDMV/PGS
Codec ID/Info        : Picture based subtitle format used on BDs/HD-DVDs
Duration         : 2 h 18 min
Bit rate         : 31.4 kb/s
Count of elements        : 3558
Stream size      : 31.1 MiB (0%)
Language         : German
Default          : No
Forced       : No

Text #3
ID           : 5
Format       : PGS
Muxing mode      : zlib
Codec ID         : S_HDMV/PGS
Codec ID/Info        : Picture based subtitle format used on BDs/HD-DVDs
Duration         : 2 h 18 min
Bit rate         : 785 b/s
Count of elements        : 130
Stream size      : 797 KiB (0%)
Language         : German
Default          : No
Forced       : No

Menu
00:00:00.000         : en:Chapter 01
00:12:21.491         : en:Chapter 02
00:24:36.809         : en:Chapter 03
00:36:09.167         : en:Chapter 04
00:48:23.400         : en:Chapter 05
01:01:51.499         : en:Chapter 06
01:14:23.042         : en:Chapter 07
01:28:41.566         : en:Chapter 08
01:41:14.735         : en:Chapter 09
01:53:49.740         : en:Chapter 10
02:04:01.934         : en:Chapter 11
02:19:23.772         : en:Chapter 12



Screenshots:
悠悠MP4_MP4电影下载_黑会社 Mafia.Inc.2019.720p.BluRay.x264-JustWatch 6.34 GB
Mafia.Inc.2019.720p.BluRay.x264-JustWatch

Rel.Date...: 01/2022
Reso.......: 1280*536px
Bitrate....: 5668 Kb/s
Source.....: 28,4 Mb/s
Audio......: AC3
link.......: https://www.imdb.com/title/tt6980960/
Notes......:

磁力链接

magnet:?xt=urn:btih:12ca3646eecf87a4daa2a1f5735af37a4bfd3c18

上传的附件:
最新回复 (0)
返回
本站所有资源均收集自互联网,没有提供影片资源存储, 也未参与录制、上传,若本站收录的资源无意侵犯了您的权益, 请联系邮箱:gogoimgs#gmail.com(#=@)