[更早] [欧美] [喜剧] [x264-720P] 伦敦大烟鬼 Smoke.Over.London.1966.720p.BluRay.x264-OLDTiME 9.73 GB

uump4 3月前 312

悠悠MP4_MP4电影下载_伦敦大烟鬼 Smoke.Over.London.1966.720p.BluRay.x264-OLDTiME 9.73 GB

◎片  名 伦敦大烟鬼 Fumo di Londra / Thank You Very Much / Smoke Over London / Gray Flannels / 伦敦之雾
◎年  代 1966
◎产  地 意大利
◎类  别 喜剧
◎语  言 意大利语 / 英语
◎上映日期 1971-01-11(西班牙)
◎IMDb评分  5.8/10 from 288 users
◎IMDb链接  https://www.imdb.com/title/tt0060993/
◎豆瓣评分 /10 from 0 users
◎豆瓣链接 https://movie.douban.com/subject/26728674/
◎片  长 122分钟
◎导  演 阿尔贝托·索尔迪 Alberto Sordi
◎编  剧 阿尔贝托·索尔迪 Alberto Sordi
      赛尔乔·阿米德伊 Sergio Amidei
◎主  演 阿尔贝托·索尔迪 Alberto Sordi
      菲奥娜·刘易斯 Fiona Lewis

◎标  签 

◎简  介

  本片由Alberto Sordi自编自导自演,获得1966年第11届意大利电影大卫奖最佳男演员奖。



Video
ID        : 1
Format       : AVC
Format/Info      : Advanced Video Codec
Format profile      : High@L4.1
Format settings      : CABAC / 8 Ref Frames
Format settings, CABAC    : Yes
Format settings, Reference frames  : 8 frames
Codec ID       : V_MPEG4/ISO/AVC
Duration       : 2 h 10 min
Bit rate       : 9 993 kb/s
Width        : 1 280 pixels
Height       : 536 pixels
Display aspect ratio     : 2.40:1
Frame rate mode      : Constant
Frame rate       : 24.000 FPS
Color space      : YUV
Chroma subsampling     : 4:2:0
Bit depth       : 8 bits
Scan type       : Progressive
Bits/(Pixel*Frame)     : 0.607
Stream size      : 9.14 GiB (94%)
Writing library      : x264 core 164 r3081 19856cc
Encoding settings     : cabac=1 / ref=8 / deblock=1:-3:-3 / analyse=0x3:0x133 / me=umh / subme=9 / psy=1 / psy_rd=1.00:0.00 / mixed_ref=1 / me_range=16 / chroma_me=1 / trellis=2 / 8x8dct=1 / cqm=0 / deadzone=21,11 / fast_pskip=0 / chroma_qp_offset=-2 / threads=17 / lookahead_threads=1 / sliced_threads=0 / nr=0 / decimate=1 / interlaced=0 / bluray_compat=0 / constrained_intra=0 / bframes=3 / b_pyramid=2 / b_adapt=2 / b_bias=0 / direct=3 / weightb=1 / open_gop=0 / weightp=2 / keyint=250 / keyint_min=24 / scenecut=40 / intra_refresh=0 / rc_lookahead=60 / rc=crf / mbtree=1 / crf=17.0 / qcomp=0.60 / qpmin=0 / qpmax=69 / qpstep=4 / ip_ratio=1.40 / aq=1:1.00
Language       : English
Default       : Yes
Forced       : No

Audio
ID        : 2
Format       : FLAC
Format/Info      : Free Lossless Audio Codec
Codec ID       : A_FLAC
Duration       : 2 h 10 min
Bit rate mode      : Variable
Bit rate       : 606 kb/s
Channel(s)       : 2 channels
Channel layout      : L R
Sampling rate      : 48.0 kHz
Frame rate       : 11.719 FPS (4096 SPF)
Bit depth       : 24 bits
Compression mode     : Lossless
Stream size      : 567 MiB (6%)
Writing library      : libFLAC 1.3.2 (UTC 2017-01-01)
Language       : Italian
Default       : Yes
Forced       : No

Text #1
ID        : 3
Format       : UTF-8
Codec ID       : S_TEXT/UTF8
Codec ID/Info      : UTF-8 Plain Text
Duration       : 2 h 6 min
Bit rate       : 34 b/s
Count of elements     : 885
Stream size      : 32.3 KiB (0%)
Language       : English
Default       : Yes
Forced       : Yes

Text #2
ID        : 4
Format       : PGS
Muxing mode      : zlib
Codec ID       : S_HDMV/PGS
Codec ID/Info      : Picture based subtitle format used on BDs/HD-DVDs
Duration       : 2 h 6 min
Bit rate       : 21.4 kb/s
Count of elements     : 1770
Stream size      : 19.4 MiB (0%)
Language       : English
Default       : No
Forced       : No

Text #3
ID        : 5
Format       : PGS
Muxing mode      : zlib
Codec ID       : S_HDMV/PGS
Codec ID/Info      : Picture based subtitle format used on BDs/HD-DVDs
Duration       : 2 h 8 min
Bit rate       : 32.3 kb/s
Count of elements     : 2888
Stream size      : 29.8 MiB (0%)
Language       : Italian
Default       : No
Forced       : No

Text #4
ID        : 6
Format       : PGS
Muxing mode      : zlib
Codec ID       : S_HDMV/PGS
Codec ID/Info      : Picture based subtitle format used on BDs/HD-DVDs
Duration       : 2 h 4 min
Bit rate       : 2 761 b/s
Count of elements     : 406
Stream size      : 2.46 MiB (0%)
Language       : Italian
Default       : No
Forced       : No

Menu
00:00:00.000      : en:Chapter 01
00:12:31.792      : en:Chapter 02
00:22:45.833      : en:Chapter 03
00:35:01.917      : en:Chapter 04
00:47:46.333      : en:Chapter 05
01:00:44.125      : en:Chapter 06
01:14:41.792      : en:Chapter 07
01:22:50.542      : en:Chapter 08
01:33:21.125      : en:Chapter 09
01:44:59.042      : en:Chapter 10
01:57:04.167      : en:Chapter 11
02:08:51.292      : en:Chapter 12


Screenshots:
悠悠MP4_MP4电影下载_伦敦大烟鬼 Smoke.Over.London.1966.720p.BluRay.x264-OLDTiME 9.73 GB
Smoke.Over.London.1966.720p.BluRay.x264-OLDTiME

Rel.Date...: 19.01.2022
Reso.......: 1280*536 px
Biterate...: 9 993 kb/s
Source.....: 35 mb/s
Audio......: flac
link.......: https://www.imdb.com/title/tt0060993/

磁力链接

magnet:?xt=urn:btih:fc347221e8ff918446088053bea1f54d3865811d
上传的附件:
最新回复 (0)
返回
本站所有资源均收集自互联网,没有提供影片资源存储, 也未参与录制、上传,若本站收录的资源无意侵犯了您的权益, 请联系邮箱:gogoimgs#gmail.com(#=@)