[2017] [中国台湾] [恐怖] [x265-1080P] 报告老师!怪怪怪怪物! Mon.Mon.Mon.Monsters.2017.CHINESE.1080p.WEBRip.x265-VXT 1.74 GB

uump4 5天前 287

悠悠MP4_MP4电影下载_报告老师!怪怪怪怪物! Mon.Mon.Mon.Monsters.2017.CHINESE.1080p.WEBRip.x265-VXT 1.74 GB

◎片  名 报告老师!怪怪怪怪物! 報告老師!怪怪怪怪物! / Mon Mon Mon Monsters
◎年  代 2017
◎产  地 中国台湾
◎类  别 剧情 / 恐怖
◎语  言 汉语普通话
◎上映日期 2017-04-23(中国香港电影节) / 2017-07-28(中国台湾)
◎IMDb评分  6.1/10 from 1383 users
◎IMDb链接  https://www.imdb.com/title/tt6648404/
◎豆瓣评分 6.7/10 from 17291 users
◎豆瓣链接 https://movie.douban.com/subject/26720627/
◎片  长 112分钟
◎导  演 九把刀 Giddens Ko
◎编  剧 九把刀 Giddens Ko
◎主  演 邓育凯 Yu Kai Teng
       蔡凡熙 Kent Tsai
       陈珮骐 Carolyn Chan
       刘奕儿 Eugenie Liu
       林姵妡 Pei Xin Lin
       赖浚程 James Lai
       陶柏萌 Meng Tao
       梁洳瑄 Bonnie Liang
       乾德门 Tak-Mun Kon
       禾浩辰 Bruce Hung
       蔡昌宪 Chang-Hsien Tsai
       宋芸桦 Vivian Sung
       柯震东 Kai Ko
       侯彦西 Yen Hsi Hou
       周亭羽 Tiffany Chou

◎标  签 

◎简  介

  《怪物》描述邓育凯饰演的好学生长期被班上风云人物三人组作弄,某天四个人意外发现吃人的人形小怪物,进而延伸出“霸凌”议题,此主题也是九把刀十多年前看完瑞典电影《邪恶》受到启发后,一直想探讨的主题。原本他想以1500万台币低成本拍成“霸凌伪纪录片”,后期转变成剧情特效片,不但在中影搭棚,也特地在西门钉封街拍动作戏,制作费提高到一亿台币,大部份成本投入特效制作。九把刀透露,原本电影设定走写实暴力路线,但自己和素人演员无法掌握,最后决定做自己走回黑色幽默风格。

◎获奖情况

  第54届台北金马影展 (2017)
  金马奖 最佳音效
  杜均堂 / 吴书瑶 / 杜笃之金马奖 最佳视觉效果(提名)
  包正勋 / 黄美青

  第12届亚洲电影大奖 (2018)
  最佳剪接(提名)
  李念修最佳视觉效果(提名)
  包正勋 / 黄美青最佳音响(提名)
  杜均堂 / 吴书瑶 / 杜笃之

  第4届豆瓣电影年度榜单 (2017)
  评分最高的恐怖片(提名)



Video
ID           : 1
Format       : HEVC
Format/Info      : High Efficiency Video Coding
Format profile       : Main [email protected]@Main
Codec ID         : hev1
Codec ID/Info        : High Efficiency Video Coding
Duration         : 1 h 52 min
Bit rate         : 1 995 kb/s
Width        : 1 918 pixels
Height       : 802 pixels
Display aspect ratio     : 2.40:1
Frame rate mode      : Constant
Frame rate       : 24.000 FPS
Color space      : YUV
Chroma subsampling       : 4:2:0
Bit depth        : 10 bits
Bits/(Pixel*Frame)       : 0.054
Stream size      : 1.56 GiB (90%)
Writing library      : x265 3.3+4-rarbg-30eb4de83092:[Linux][GCC 8.3.1][64 bit] 10bit
Encoding settings        : cpuid=1111039 / frame-threads=4 / wpp / no-pmode / no-pme / no-psnr / no-ssim / log-level=2 / input-csp=1 / input-res=1918x802 / interlace=0 / total-frames=0 / level-idc=0 / high-tier=1 / uhd-bd=0 / ref=4 / no-allow-non-conformance / no-repeat-headers / annexb / no-aud / no-hrd / info / hash=0 / no-temporal-layers / open-gop / min-keyint=24 / keyint=250 / gop-lookahead=0 / bframes=4 / b-adapt=2 / b-pyramid / bframe-bias=0 / rc-lookahead=25 / lookahead-slices=4 / scenecut=40 / hist-scenecut=0 / radl=0 / no-splice / no-intra-refresh / ctu=64 / min-cu-size=8 / rect / no-amp / max-tu-size=32 / tu-inter-depth=1 / tu-intra-depth=1 / limit-tu=0 / rdoq-level=2 / dynamic-rd=0.00 / no-ssim-rd / signhide / no-tskip / nr-intra=0 / nr-inter=0 / no-constrained-intra / strong-intra-smoothing / max-merge=3 / limit-refs=3 / limit-modes / me=3 / subme=3 / merange=57 / temporal-mvp / no-frame-dup / no-hme / weightp / no-weightb / no-analyze-src-pics / deblock=0:0 / no-sao / no-sao-non-deblock / rd=4 / selective-sao=0 / no-early-skip / rskip / no-fast-intra / no-tskip-fast / no-cu-lossless / no-b-intra / no-splitrd-skip / rdpenalty=0 / psy-rd=2.00 / psy-rdoq=1.00 / no-rd-refine / no-lossless / cbqpoffs=0 / crqpoffs=0 / rc=abr / bitrate=2000 / qcomp=0.60 / qpstep=4 / stats-write=0 / stats-read=2 / cplxblur=20.0 / qblur=0.5 / ipratio=1.40 / pbratio=1.30 / aq-mode=3 / aq-strength=1.00 / cutree / zone-count=0 / no-strict-cbr / qg-size=32 / no-rc-grain / qpmax=69 / qpmin=0 / no-const-vbv / sar=1 / overscan=0 / videoformat=5 / range=0 / colorprim=2 / transfer=2 / colormatrix=2 / chromaloc=0 / display-window=0 / cll=0,0 / min-luma=0 / max-luma=1023 / log2-max-poc-lsb=8 / vui-timing-info / vui-hrd-info / slices=1 / no-opt-qp-pps / no-opt-ref-list-length-pps / no-multi-pass-opt-rps / scenecut-bias=0.05 / hist-threshold=0.01 / no-opt-cu-delta-qp / no-aq-motion / no-hdr10 / no-hdr10-opt / no-dhdr10-opt / no-idr-recovery-sei / analysis-reuse-level=0 / analysis-save-reuse-level=0 / analysis-load-reuse-level=0 / scale-factor=0 / refine-intra=0 / refine-inter=0 / refine-mv=1 / refine-ctu-distortion=0 / no-limit-sao / ctu-info=0 / no-lowpass-dct / refine-analysis-type=0 / copy-pic=1 / max-ausize-factor=1.0 / no-dynamic-refine / no-single-sei / no-hevc-aq / no-svt / no-field / qp-adaptation-range=1.00 / no-scenecut-aware-qpconformance-window-offsets / right=0 / bottom=0
Encoded date         : UTC 2022-01-15 05:09:41
Tagged date      : UTC 2022-01-15 05:09:41
Codec configuration box      : hvcC

Audio
ID           : 2
Format       : AAC LC
Format/Info      : Advanced Audio Codec Low Complexity
Codec ID         : mp4a-40-2
Duration         : 1 h 52 min
Duration_LastFrame       : -1 ms
Bit rate mode        : Constant
Bit rate         : 224 kb/s
Channel(s)       : 6 channels
Channel layout       : C L R Ls Rs LFE
Sampling rate        : 48.0 kHz
Frame rate       : 46.875 FPS (1024 SPF)
Compression mode     : Lossy
Stream size      : 180 MiB (10%)
Language         : Chinese
Default          : Yes
Alternate group      : 1
Encoded date         : UTC 2022-01-15 05:09:41
Tagged date      : UTC 2022-01-15 05:09:41



悠悠MP4_MP4电影下载_报告老师!怪怪怪怪物! Mon.Mon.Mon.Monsters.2017.CHINESE.1080p.WEBRip.x265-VXT 1.74 GB
悠悠MP4_MP4电影下载_报告老师!怪怪怪怪物! Mon.Mon.Mon.Monsters.2017.CHINESE.1080p.WEBRip.x265-VXT 1.74 GB
悠悠MP4_MP4电影下载_报告老师!怪怪怪怪物! Mon.Mon.Mon.Monsters.2017.CHINESE.1080p.WEBRip.x265-VXT 1.74 GB

磁力链接

magnet:?xt=urn:btih:a1d2991080d074d4bc46d0cf1550a6505d1f562b

上传的附件:
最新回复 (0)
返回
本站所有资源均收集自互联网,没有提供影片资源存储, 也未参与录制、上传,若本站收录的资源无意侵犯了您的权益, 请联系邮箱:gogoimgs#gmail.com(#[email protected])