[2008] [欧美] [喜剧] [x265-1080P] 绿光 Green.Flash.2008.1080p.WEBRip.x265-RARBG 1.51 GB

uump4 3天前 349



◎片  名 绿光 Green Flash
◎年  代 2008
◎产  地 美国
◎类  别 剧情 / 喜剧 / 运动
◎语  言 英语
◎上映日期 2008-02-01
◎IMDb评分  4.4/10 from 397 users
◎IMDb链接  https://www.imdb.com/title/tt1104066/
◎豆瓣评分 4.7/10 from 69 users
◎豆瓣链接 https://movie.douban.com/subject/3600859/
◎片  长 
◎导  演 Paul Nihipali Paul Nihipali
◎编  剧 Paul Nihipali Paul Nihipali
◎主  演  Sean Ridgway
       Kat Tuohy Kat Tuohy
       Court Young Court Young
       克里斯汀·德·卢卡 Kristen De Luca
        Phil Dalhausser
        Ritche Lago Bautista
        Shane Schoeppner
       埃里克·波德纳尔 Eric Podnar
        Bryce Hurless
       托里·德维托 Torrey DeVitto
       汤贾·雷切特 Tanja Reichert
       Paul Nihipali Paul Nihipali
       威尔逊·克鲁兹 Wilson Cruz
       克里斯汀·卡瓦拉瑞 Kristin Cavallari
       马特·普罗考普 Matt Prokop
       布丽·特纳 Bree Turner
       贾里尔·怀特 Jaleel White
       David Charvet David Charvet
       Marques Johnson Marques Johnson
       布洛迪·哈泽尔 Brody Hutzler
       Cedric Pendleton Cedric Pendleton
       Jason Olive Jason Olive
       理查德·雷西尔 Richard Riehle
       Misty May-Treanor Misty May-Treanor

◎标  签 

◎简  介

  步入30岁的成熟年纪了,卡梅伦戴已经失去了多次入住职业篮球名人堂的机会并成为了一个生活漫无目的的人。自从遇到了一个漂亮女人之后,他就整天出现在了美国南加州职业沙滩排球的现场。似乎他是位有天赋的运动员,注定成为体育明星。可好事多磨,他成功的机会又再次受到威胁了。                                    
      At the ripe old age of 30, Cameron Day has given up his chances at pro-basketball fame and settled into an aimless life. A chance encounter with a beautiful woman lands him smack in the middle of Southern California's pro beach volleyball scene. A naturally talented true athlete, he seems destined for sports stardom once again until his old demons start creeping in, threatening his chances at success. Written by Casting                                    
      "Green Flash" follows the triumphant rise and self-discovery of Cameron Day, a former college basketball star whose once uncanny ability to master the playing fields around him comes at one small price, his sanity. Cameron has never been able to balance his unique gift of greatness with the tormenting mental sacrifice it requires of him. When he's in "the zone" his world is perfect. It slows down for him and a light shines a path on success. But to get there brings out an anger and a fear that tears his outer world apart. Now, after a mysterious ten year disappearance from the athletic world he once dominated, we find Cameron Day desperate to give greatness another go around. He's determined to become an elite athlete once again, but this time Cameron sets his sites on ruling the pro beach volleyball circuit. From Manhattan, New York to Manhattan Beach, California, Cameron's journey is inspired by an artistic beach beauty named Mia, who - despite her unwillingness to date jock types - leads Cameron down a path of self awareness and enlightens him on the phenomenon of the Green Flash: a fleeting moment of brilliance in nature. On the tour, Cameron makes new friends, Kenny, and new enemies, Madden, but a cut throat world filled with clamoring to get ahead leaves everybody questioning, who is who and which is which? In his maddening pursuit of victory at the grand daddy of all tournaments, The Manhattan Beach Open, Cameron is forced to determine who he can trust by his tormented side as he sets out to not only win, but to face his demons in his own quest for a fleeting moment of brilliance. Written by Green Flash



Video
ID           : 1
Format       : HEVC
Format/Info      : High Efficiency Video Coding
Format profile       : Main [email protected]@Main
Codec ID         : hev1
Codec ID/Info        : High Efficiency Video Coding
Duration         : 1 h 37 min
Bit rate         : 2 000 kb/s
Width        : 1 920 pixels
Height       : 1 080 pixels
Display aspect ratio     : 16:9
Frame rate mode      : Constant
Frame rate       : 23.976 (24000/1001) FPS
Color space      : YUV
Chroma subsampling       : 4:2:0
Bit depth        : 10 bits
Bits/(Pixel*Frame)       : 0.040
Stream size      : 1.36 GiB (90%)
Writing library      : x265 3.3+4-rarbg-30eb4de83092:[Linux][GCC 8.3.1][64 bit] 10bit
Encoding settings        : cpuid=1111039 / frame-threads=4 / wpp / no-pmode / no-pme / no-psnr / no-ssim / log-level=2 / input-csp=1 / input-res=1920x1080 / interlace=0 / total-frames=0 / level-idc=0 / high-tier=1 / uhd-bd=0 / ref=4 / no-allow-non-conformance / no-repeat-headers / annexb / no-aud / no-hrd / info / hash=0 / no-temporal-layers / open-gop / min-keyint=23 / keyint=250 / gop-lookahead=0 / bframes=4 / b-adapt=2 / b-pyramid / bframe-bias=0 / rc-lookahead=25 / lookahead-slices=4 / scenecut=40 / hist-scenecut=0 / radl=0 / no-splice / no-intra-refresh / ctu=64 / min-cu-size=8 / rect / no-amp / max-tu-size=32 / tu-inter-depth=1 / tu-intra-depth=1 / limit-tu=0 / rdoq-level=2 / dynamic-rd=0.00 / no-ssim-rd / signhide / no-tskip / nr-intra=0 / nr-inter=0 / no-constrained-intra / strong-intra-smoothing / max-merge=3 / limit-refs=3 / limit-modes / me=3 / subme=3 / merange=57 / temporal-mvp / no-frame-dup / no-hme / weightp / no-weightb / no-analyze-src-pics / deblock=0:0 / no-sao / no-sao-non-deblock / rd=4 / selective-sao=0 / no-early-skip / rskip / no-fast-intra / no-tskip-fast / no-cu-lossless / no-b-intra / no-splitrd-skip / rdpenalty=0 / psy-rd=2.00 / psy-rdoq=1.00 / no-rd-refine / no-lossless / cbqpoffs=0 / crqpoffs=0 / rc=abr / bitrate=2000 / qcomp=0.60 / qpstep=4 / stats-write=0 / stats-read=2 / cplxblur=20.0 / qblur=0.5 / ipratio=1.40 / pbratio=1.30 / aq-mode=3 / aq-strength=1.00 / cutree / zone-count=0 / no-strict-cbr / qg-size=32 / no-rc-grain / qpmax=69 / qpmin=0 / no-const-vbv / sar=1 / overscan=0 / videoformat=5 / range=0 / colorprim=2 / transfer=2 / colormatrix=2 / chromaloc=0 / display-window=0 / cll=0,0 / min-luma=0 / max-luma=1023 / log2-max-poc-lsb=8 / vui-timing-info / vui-hrd-info / slices=1 / no-opt-qp-pps / no-opt-ref-list-length-pps / no-multi-pass-opt-rps / scenecut-bias=0.05 / hist-threshold=0.01 / no-opt-cu-delta-qp / no-aq-motion / no-hdr10 / no-hdr10-opt / no-dhdr10-opt / no-idr-recovery-sei / analysis-reuse-level=0 / analysis-save-reuse-level=0 / analysis-load-reuse-level=0 / scale-factor=0 / refine-intra=0 / refine-inter=0 / refine-mv=1 / refine-ctu-distortion=0 / no-limit-sao / ctu-info=0 / no-lowpass-dct / refine-analysis-type=0 / copy-pic=1 / max-ausize-factor=1.0 / no-dynamic-refine / no-single-sei / no-hevc-aq / no-svt / no-field / qp-adaptation-range=1.00 / no-scenecut-aware-qpconformance-window-offsets / right=0 / bottom=0
Encoded date         : UTC 2022-01-15 01:19:46
Tagged date      : UTC 2022-01-15 01:19:46
Codec configuration box      : hvcC

Audio
ID           : 2
Format       : AAC LC
Format/Info      : Advanced Audio Codec Low Complexity
Codec ID         : mp4a-40-2
Duration         : 1 h 37 min
Duration_LastFrame       : -1 ms
Bit rate mode        : Constant
Bit rate         : 224 kb/s
Channel(s)       : 6 channels
Channel layout       : C L R Ls Rs LFE
Sampling rate        : 48.0 kHz
Frame rate       : 46.875 FPS (1024 SPF)
Compression mode     : Lossy
Stream size      : 156 MiB (10%)
Language         : English
Default          : Yes
Alternate group      : 1
Encoded date         : UTC 2022-01-15 01:19:46
Tagged date      : UTC 2022-01-15 01:19:46



悠悠MP4_MP4电影下载_绿光 Green.Flash.2008.1080p.WEBRip.x265-RARBG 1.51 GB
悠悠MP4_MP4电影下载_绿光 Green.Flash.2008.1080p.WEBRip.x265-RARBG 1.51 GB
悠悠MP4_MP4电影下载_绿光 Green.Flash.2008.1080p.WEBRip.x265-RARBG 1.51 GB

磁力链接

magnet:?xt=urn:btih:3e4eed80bcc40e55d39f8c5716fdd9732d8bbc24

上传的附件:
最新回复 (0)
返回
本站所有资源均收集自互联网,没有提供影片资源存储, 也未参与录制、上传,若本站收录的资源无意侵犯了您的权益, 请联系邮箱:gogoimgs#gmail.com(#[email protected])