[2009] [欧美] [动作] [x265-1080P] WCW沉浮录 The.Rise.and.Fall.of.WCW.2009.1080p.WEBRip.x265-RARBG 1.63 GB

uump4 4天前 296



◎片  名 WCW沉浮录 WWE: The Rise and Fall of WCW
◎年  代 2009
◎产  地 美国
◎类  别 动作
◎语  言 英语
◎上映日期 2009
◎IMDb评分  7.5/10 from 910 users
◎IMDb链接  https://www.imdb.com/title/tt1483817/
◎豆瓣评分 /10 from 0 users
◎豆瓣链接 https://movie.douban.com/subject/3917606/
◎片  长 
◎导  演 
◎编  剧 
◎主  演 比尔·戈德博格 Bill Goldberg
       Richard Blood Richard Blood
       Bill Watts Bill Watts
       克里斯·杰里科 Chris Jericho
        Mike Graham
       Arn Anderson Arn Anderson
       文斯·麦马汉 Vince McMahon
       Michael Seitz Michael Seitz
       Terry Allen Terry Allen
       Shane Helms Shane Helms
       吉姆·罗斯 Jim Ross
       瑞克·佛莱尔 Ric Flair
       Dean Malenko Dean Malenko
       Joe Laurinaitis Joe Laurinaitis
       保罗·怀特 Paul Wight
       Dusty Rhodes Dusty Rhodes
       格恩·奥克兰 Gene Okerlund
       Kevin Sullivan Kevin Sullivan

◎标  签 

◎简  介

  WCW(World Championship Wrestling 世界冠军摔角联盟),上世纪美国最为著名的摔角团体之一。成立于1988年,总部设在佐治亚州亚特兰大市。早年曾是NWA旗下的加盟组织,1988年11月在Ted Turner的倡导下脱离NWA,成立WCW,Ted Turner担任该联盟总裁直至2001年联盟倒闭。1995年,在一代革新者Eric Bischoff(艾瑞克•毕雪夫)的推动下,WCW从古典、传统的风格向商业化、偶像化转变。在此期间,Eric Bischoff先后从竞争对手WWF(世界摔角联盟,现今的WWE)手中挖来Ric Flair、Hulk Hogan、Kevin Nash、Scott Hall、Bret Hart等一干重量级明星,并培养出蝎子王Sting、Goldberg、Booker T等新一代的王者选手。Eric还最先提出周一直播的理念,每周一固定的品牌节目Nitro吸引观众无数。随后这一理念被WWF总裁Vince McMahon借用,并由此引发了持续经年的周一大战。                                    
      然而,占据先机的WCW却因经营不善以及理念落后逐渐逊于WWF,在对手强大的攻势下,2001年WCW宣布倒闭,之后连同另一家倒闭联盟ECW被WWF收购,成立了今天的WWE。风光一时的WCW就此烟消云散。



Video
ID           : 1
Format       : HEVC
Format/Info      : High Efficiency Video Coding
Format profile       : Main [email protected]@Main
Codec ID         : hev1
Codec ID/Info        : High Efficiency Video Coding
Duration         : 1 h 44 min
Bit rate         : 2 001 kb/s
Width        : 1 920 pixels
Height       : 1 080 pixels
Display aspect ratio     : 16:9
Frame rate mode      : Constant
Frame rate       : 29.970 (30000/1001) FPS
Original frame rate      : 29.970 (29970/1000) FPS
Color space      : YUV
Chroma subsampling       : 4:2:0
Bit depth        : 10 bits
Bits/(Pixel*Frame)       : 0.032
Stream size      : 1.46 GiB (90%)
Writing library      : x265 3.3+4-rarbg-30eb4de83092:[Linux][GCC 8.3.1][64 bit] 10bit
Encoding settings        : cpuid=1111039 / frame-threads=4 / wpp / no-pmode / no-pme / no-psnr / no-ssim / log-level=2 / input-csp=1 / input-res=1920x1080 / interlace=0 / total-frames=0 / level-idc=0 / high-tier=1 / uhd-bd=0 / ref=4 / no-allow-non-conformance / no-repeat-headers / annexb / no-aud / no-hrd / info / hash=0 / no-temporal-layers / open-gop / min-keyint=25 / keyint=250 / gop-lookahead=0 / bframes=4 / b-adapt=2 / b-pyramid / bframe-bias=0 / rc-lookahead=25 / lookahead-slices=4 / scenecut=40 / hist-scenecut=0 / radl=0 / no-splice / no-intra-refresh / ctu=64 / min-cu-size=8 / rect / no-amp / max-tu-size=32 / tu-inter-depth=1 / tu-intra-depth=1 / limit-tu=0 / rdoq-level=2 / dynamic-rd=0.00 / no-ssim-rd / signhide / no-tskip / nr-intra=0 / nr-inter=0 / no-constrained-intra / strong-intra-smoothing / max-merge=3 / limit-refs=3 / limit-modes / me=3 / subme=3 / merange=57 / temporal-mvp / no-frame-dup / no-hme / weightp / no-weightb / no-analyze-src-pics / deblock=0:0 / no-sao / no-sao-non-deblock / rd=4 / selective-sao=0 / no-early-skip / rskip / no-fast-intra / no-tskip-fast / no-cu-lossless / no-b-intra / no-splitrd-skip / rdpenalty=0 / psy-rd=2.00 / psy-rdoq=1.00 / no-rd-refine / no-lossless / cbqpoffs=0 / crqpoffs=0 / rc=abr / bitrate=2000 / qcomp=0.60 / qpstep=4 / stats-write=0 / stats-read=2 / cplxblur=20.0 / qblur=0.5 / ipratio=1.40 / pbratio=1.30 / aq-mode=3 / aq-strength=1.00 / cutree / zone-count=0 / no-strict-cbr / qg-size=32 / no-rc-grain / qpmax=69 / qpmin=0 / no-const-vbv / sar=1 / overscan=0 / videoformat=5 / range=0 / colorprim=2 / transfer=2 / colormatrix=2 / chromaloc=0 / display-window=0 / cll=0,0 / min-luma=0 / max-luma=1023 / log2-max-poc-lsb=8 / vui-timing-info / vui-hrd-info / slices=1 / no-opt-qp-pps / no-opt-ref-list-length-pps / no-multi-pass-opt-rps / scenecut-bias=0.05 / hist-threshold=0.01 / no-opt-cu-delta-qp / no-aq-motion / no-hdr10 / no-hdr10-opt / no-dhdr10-opt / no-idr-recovery-sei / analysis-reuse-level=0 / analysis-save-reuse-level=0 / analysis-load-reuse-level=0 / scale-factor=0 / refine-intra=0 / refine-inter=0 / refine-mv=1 / refine-ctu-distortion=0 / no-limit-sao / ctu-info=0 / no-lowpass-dct / refine-analysis-type=0 / copy-pic=1 / max-ausize-factor=1.0 / no-dynamic-refine / no-single-sei / no-hevc-aq / no-svt / no-field / qp-adaptation-range=1.00 / no-scenecut-aware-qpconformance-window-offsets / right=0 / bottom=0
Encoded date         : UTC 2022-01-14 23:34:16
Tagged date      : UTC 2022-01-14 23:34:16
Codec configuration box      : hvcC

Audio
ID           : 2
Format       : AAC LC
Format/Info      : Advanced Audio Codec Low Complexity
Codec ID         : mp4a-40-2
Duration         : 1 h 44 min
Bit rate mode        : Constant
Bit rate         : 224 kb/s
Channel(s)       : 2 channels
Channel layout       : L R
Sampling rate        : 48.0 kHz
Frame rate       : 46.875 FPS (1024 SPF)
Compression mode     : Lossy
Stream size      : 168 MiB (10%)
Language         : English
Default          : Yes
Alternate group      : 1
Encoded date         : UTC 2022-01-14 23:34:16
Tagged date      : UTC 2022-01-14 23:34:16



悠悠MP4_MP4电影下载_WCW沉浮录 The.Rise.and.Fall.of.WCW.2009.1080p.WEBRip.x265-RARBG 1.63 GB
悠悠MP4_MP4电影下载_WCW沉浮录 The.Rise.and.Fall.of.WCW.2009.1080p.WEBRip.x265-RARBG 1.63 GB
悠悠MP4_MP4电影下载_WCW沉浮录 The.Rise.and.Fall.of.WCW.2009.1080p.WEBRip.x265-RARBG 1.63 GB

磁力链接

magnet:?xt=urn:btih:3b6168294f5bbf1107f131f699a0244d3514609d

上传的附件:
最新回复 (0)
返回
本站所有资源均收集自互联网,没有提供影片资源存储, 也未参与录制、上传,若本站收录的资源无意侵犯了您的权益, 请联系邮箱:gogoimgs#gmail.com(#[email protected])