[更早] [欧美] [犯罪] [x264-720P] 捕鹰 The.Pursuit.of.DB.Cooper.1981.720p.BluRay.H264.AAC-RARBG 1.21 GB

uump4 4天前 93

悠悠MP4_MP4电影下载_捕鹰 The.Pursuit.of.DB.Cooper.1981.720p.BluRay.H264.AAC-RARBG 1.21 GB

◎片  名 捕鹰 The Pursuit of D.B. Cooper
◎年  代 1981
◎产  地 美国
◎类  别 惊悚 / 犯罪 / 冒险
◎语  言 英语
◎上映日期 1981-11-13
◎IMDb评分  5.6/10 from 1189 users
◎IMDb链接  https://www.imdb.com/title/tt0082958/
◎豆瓣评分 /10 from 0 users
◎豆瓣链接 https://movie.douban.com/subject/1293063/
◎片  长 100 分钟 / Argentina: 105 分钟
◎导  演 罗杰·斯波蒂斯伍德 Roger Spottiswoode
◎编  剧 杰弗里·艾伦·菲斯金 Jeffrey Alan Fiskin
◎主  演 

◎标  签 

◎简  介

  本片根据美国史上最著名也是最神秘,至今仍未破获的飞机劫案改编而成。劫案主角就是大名鼎鼎的D.B COOPER,在打劫后只身从一万公尺高空跳伞脱逃,此后美国警方与FBI巡查多年也并未抓获真凶。                                    
      http://zhidao.baidu.com/question/59706193.html?si=1



Video
ID           : 1
Format       : AVC
Format/Info      : Advanced Video Codec
Format profile       : [email protected]
Format settings      : CABAC / 4 Ref Frames
Format settings, CABAC       : Yes
Format settings, Reference frames    : 4 frames
Codec ID         : avc1
Codec ID/Info        : Advanced Video Coding
Duration         : 1 h 40 min
Bit rate         : 1 500 kb/s
Width        : 1 280 pixels
Height       : 694 pixels
Display aspect ratio     : 1.85:1
Frame rate mode      : Constant
Frame rate       : 23.976 (23976/1000) FPS
Color space      : YUV
Chroma subsampling       : 4:2:0
Bit depth        : 8 bits
Scan type        : Progressive
Bits/(Pixel*Frame)       : 0.070
Stream size      : 1.05 GiB (87%)
Writing library      : x264 core 152 r2851M ba24899
Encoding settings        : cabac=1 / ref=4 / deblock=1:-1:-1 / analyse=0x3:0x113 / me=umh / subme=9 / psy=1 / psy_rd=1.00:0.15 / mixed_ref=1 / me_range=24 / chroma_me=1 / trellis=2 / 8x8dct=1 / cqm=0 / deadzone=21,11 / fast_pskip=1 / chroma_qp_offset=-3 / threads=16 / lookahead_threads=4 / sliced_threads=0 / nr=0 / decimate=1 / interlaced=0 / bluray_compat=0 / constrained_intra=0 / bframes=3 / b_pyramid=2 / b_adapt=2 / b_bias=0 / direct=3 / weightb=1 / open_gop=0 / weightp=2 / keyint=250 / keyint_min=25 / scenecut=40 / intra_refresh=0 / rc_lookahead=50 / rc=2pass / mbtree=1 / bitrate=1500 / ratetol=1.0 / qcomp=0.60 / qpmin=0 / qpmax=69 / qpstep=4 / cplxblur=20.0 / qblur=0.5 / vbv_maxrate=31250 / vbv_bufsize=31250 / nal_hrd=none / filler=0 / ip_ratio=1.40 / aq=3:1.00
Encoded date         : UTC 2022-01-14 19:26:01
Tagged date      : UTC 2022-01-14 19:26:01
Codec configuration box      : avcC

Audio
ID           : 2
Format       : AAC LC
Format/Info      : Advanced Audio Codec Low Complexity
Codec ID         : mp4a-40-2
Duration         : 1 h 40 min
Bit rate mode        : Constant
Bit rate         : 224 kb/s
Channel(s)       : 2 channels
Channel layout       : L R
Sampling rate        : 48.0 kHz
Frame rate       : 46.875 FPS (1024 SPF)
Compression mode     : Lossy
Stream size      : 161 MiB (13%)
Language         : English
Default          : Yes
Alternate group      : 1
Encoded date         : UTC 2022-01-14 19:26:01
Tagged date      : UTC 2022-01-14 19:26:01



悠悠MP4_MP4电影下载_捕鹰 The.Pursuit.of.DB.Cooper.1981.720p.BluRay.H264.AAC-RARBG 1.21 GB
悠悠MP4_MP4电影下载_捕鹰 The.Pursuit.of.DB.Cooper.1981.720p.BluRay.H264.AAC-RARBG 1.21 GB
悠悠MP4_MP4电影下载_捕鹰 The.Pursuit.of.DB.Cooper.1981.720p.BluRay.H264.AAC-RARBG 1.21 GB

磁力链接

magnet:?xt=urn:btih:2387ccc76df05b8d3c80f45ea6d6a3b1ae7ffe75

上传的附件:
最新回复 (0)
返回
本站所有资源均收集自互联网,没有提供影片资源存储, 也未参与录制、上传,若本站收录的资源无意侵犯了您的权益, 请联系邮箱:gogoimgs#gmail.com(#[email protected])