[2009] [中国大陆] [历史] [x264-720P] 白银帝国 Empire.of.Silver.2009.CHINESE.720p.BluRay.H264.AAC-VXT 1.37 GB

uump4 4天前 131

悠悠MP4_MP4电影下载_白银帝国 Empire.of.Silver.2009.CHINESE.720p.BluRay.H264.AAC-VXT 1.37 GB

◎片  名 白银帝国 / Empire of Silver
◎年  代 2009
◎产  地 中国大陆 / 中国台湾 / 中国香港
◎类  别 剧情 / 历史 / 古装
◎语  言 普通话/国语 / 英语
◎上映日期 2009-08-21(中国大陆)
◎IMDb评分  6.0/10 from 788 users
◎IMDb链接  https://www.imdb.com/title/tt1362045/
◎豆瓣评分 6.3/10 from 36593 users
◎豆瓣链接 https://movie.douban.com/subject/3445526/
◎片  长 116分钟
◎导  演 姚树华 Christina Yao
◎编  剧 姚树华 Christina Yao
       成一 Cheng Yi
◎主  演 郭富城 Aaron Kwok
       郝蕾 Lei Hao
       张铁林 Tielin Zhang
       詹妮弗·提莉 Jennifer Tilly
       金士杰 Shih-Chieh King
       恬妞 Niu Tien
       丁志城 Zhicheng Ding
       雷镇语 Zhenyu Lei
       吕中 Zhong Lü
       李依晓 Xiaoyi Li
       刘仲元 Zhongyuan Liu
       曹操 Jonathan Kos-Read
       常蓝天 Lantian Chang
       侯桐江 Tongjiang Hou
       王德顺 Deshun Wang

◎标  签 

◎简  介

  本片以清末民初富可敌国的山西天成元票号的传承为主线,再现了“中国华尔街”金融业的百年兴衰。故事以一个风烛残年老人的回忆贯穿全片:天成元掌门人康老爷(张铁林 饰)膝下共有四子,但老大天生罹患聋哑残疾,老二生性莽撞好斗在一次意外中下肢瘫痪,老四因新婚娇妻在天津被劫惨死而疯癫,只剩下老三(郭富城 饰)可以继承祖宗家业。但康三却对父亲抱有深深的怨恨,原因是他夺走了自己昔日恋人(郝蕾 饰)。                                    
      康老爷希望她可以为康家添丁,继承香火,但是她誓死不从。康夫人曾多次对康三表露心迹,但后者始终对继母礼让三分,不敢越雷池半步。康老爷见北京分号戴掌柜才智过人,遂恩威并用计赚邱掌柜(丁志诚 饰),令其死心塌地辅佐少主,然而康三心中却另有打算……                                    
      本片根据成一的小说《白银谷》改编。

◎获奖情况

  第29届香港电影金像奖 (2010)
  最佳摄影(提名)
  潘耀明最佳美术指导(提名)
  姚树华 / 奚仲文 / 张季平最佳服装造型设计(提名)
  谭英群 / 奚仲文 / 文润铃 / 戴美玲

  第12届上海国际电影节 (2009)
  金爵奖 最佳影片(提名)
  姚树华金爵奖 评审团奖
  姚树华电影频道传媒大奖 最佳影片(提名)
  姚树华

  第27届中国电影金鸡奖 (2009)
  最佳摄影(提名)
  潘耀明

  第13届中国电影华表奖 (2009)
  优秀境外华裔男演员奖(提名)
  郭富城优秀合拍片奖(提名)



Video
ID           : 1
Format       : AVC
Format/Info      : Advanced Video Codec
Format profile       : [email protected]
Format settings      : CABAC / 4 Ref Frames
Format settings, CABAC       : Yes
Format settings, Reference frames    : 4 frames
Codec ID         : avc1
Codec ID/Info        : Advanced Video Coding
Duration         : 1 h 53 min
Bit rate         : 1 500 kb/s
Width        : 1 280 pixels
Height       : 544 pixels
Display aspect ratio     : 2.35:1
Frame rate mode      : Constant
Frame rate       : 23.976 (23976/1000) FPS
Color space      : YUV
Chroma subsampling       : 4:2:0
Bit depth        : 8 bits
Scan type        : Progressive
Bits/(Pixel*Frame)       : 0.090
Stream size      : 1.18 GiB (87%)
Writing library      : x264 core 152 r2851M ba24899
Encoding settings        : cabac=1 / ref=4 / deblock=1:-1:-1 / analyse=0x3:0x113 / me=umh / subme=9 / psy=1 / psy_rd=1.00:0.15 / mixed_ref=1 / me_range=24 / chroma_me=1 / trellis=2 / 8x8dct=1 / cqm=0 / deadzone=21,11 / fast_pskip=1 / chroma_qp_offset=-3 / threads=16 / lookahead_threads=4 / sliced_threads=0 / nr=0 / decimate=1 / interlaced=0 / bluray_compat=0 / constrained_intra=0 / bframes=3 / b_pyramid=2 / b_adapt=2 / b_bias=0 / direct=3 / weightb=1 / open_gop=0 / weightp=2 / keyint=250 / keyint_min=25 / scenecut=40 / intra_refresh=0 / rc_lookahead=50 / rc=2pass / mbtree=1 / bitrate=1500 / ratetol=1.0 / qcomp=0.60 / qpmin=0 / qpmax=69 / qpstep=4 / cplxblur=20.0 / qblur=0.5 / vbv_maxrate=31250 / vbv_bufsize=31250 / nal_hrd=none / filler=0 / ip_ratio=1.40 / aq=3:1.00
Encoded date         : UTC 2022-01-14 18:34:29
Tagged date      : UTC 2022-01-14 18:34:29
Codec configuration box      : avcC

Audio
ID           : 2
Format       : AAC LC
Format/Info      : Advanced Audio Codec Low Complexity
Codec ID         : mp4a-40-2
Duration         : 1 h 53 min
Bit rate mode        : Constant
Bit rate         : 224 kb/s
Channel(s)       : 6 channels
Channel layout       : C L R Ls Rs LFE
Sampling rate        : 48.0 kHz
Frame rate       : 46.875 FPS (1024 SPF)
Compression mode     : Lossy
Stream size      : 181 MiB (13%)
Language         : English
Default          : Yes
Alternate group      : 1
Encoded date         : UTC 2022-01-14 18:34:29
Tagged date      : UTC 2022-01-14 18:34:29



悠悠MP4_MP4电影下载_白银帝国 Empire.of.Silver.2009.CHINESE.720p.BluRay.H264.AAC-VXT 1.37 GB
悠悠MP4_MP4电影下载_白银帝国 Empire.of.Silver.2009.CHINESE.720p.BluRay.H264.AAC-VXT 1.37 GB
悠悠MP4_MP4电影下载_白银帝国 Empire.of.Silver.2009.CHINESE.720p.BluRay.H264.AAC-VXT 1.37 GB

磁力链接

magnet:?xt=urn:btih:4bd094e00dfda5a7aab573e634e6ac3d6b54bc9b

上传的附件:
最新回复 (0)
返回
本站所有资源均收集自互联网,没有提供影片资源存储, 也未参与录制、上传,若本站收录的资源无意侵犯了您的权益, 请联系邮箱:gogoimgs#gmail.com(#[email protected])