[2018] [欧美] [恐怖] [x264-720P] 逃离Marwin Escape.from.Marwin.2018.720p.BluRay.H264.AAC-RARBG 1.24 GB

uump4 4天前 66

悠悠MP4_MP4电影下载_逃离Marwin Escape.from.Marwin.2018.720p.BluRay.H264.AAC-RARBG 1.24 GB

◎片  名 逃离Marwin Escape from Marwin
◎年  代 2018
◎产  地 西班牙
◎类  别 恐怖
◎语  言 西班牙语
◎上映日期 
◎IMDb评分  4.5/10 from 75 users
◎IMDb链接  https://www.imdb.com/title/tt5554204/
◎豆瓣评分 /10 from 0 users
◎豆瓣链接 https://movie.douban.com/subject/34803938/
◎片  长 102
◎导  演 
◎编  剧 
◎主  演 克里斯蒂安·斯塔姆 Christian Stamm

◎标  签 

◎简  介

  In life, we all deserve second chances. It doesn't matter what we have done. What if we were given a second opportunity in the form of an "escape room"? Annually, prisoners sentenced to the death penalty have the option to play this game and be able to get the great prize that they desire, their freedom.



Video
ID        : 1
Format       : AVC
Format/Info      : Advanced Video Codec
Format profile      : [email protected]
Format settings      : CABAC / 4 Ref Frames
Format settings, CABAC    : Yes
Format settings, Reference frames  : 4 frames
Codec ID       : avc1
Codec ID/Info      : Advanced Video Coding
Duration       : 1 h 42 min
Bit rate       : 1 500 kb/s
Width        : 1 280 pixels
Height       : 546 pixels
Display aspect ratio     : 2.35:1
Original display aspect ratio   : 2.35:1
Frame rate mode      : Constant
Frame rate       : 24.000 FPS
Color space      : YUV
Chroma subsampling     : 4:2:0
Bit depth       : 8 bits
Scan type       : Progressive
Bits/(Pixel*Frame)     : 0.089
Stream size      : 1.07 GiB (87%)
Writing library      : x264 core 152 r2851M ba24899
Encoding settings     : cabac=1 / ref=4 / deblock=1:-1:-1 / analyse=0x3:0x113 / me=umh / subme=9 / psy=1 / psy_rd=1.00:0.15 / mixed_ref=1 / me_range=24 / chroma_me=1 / trellis=2 / 8x8dct=1 / cqm=0 / deadzone=21,11 / fast_pskip=1 / chroma_qp_offset=-3 / threads=16 / lookahead_threads=4 / sliced_threads=0 / nr=0 / decimate=1 / interlaced=0 / bluray_compat=0 / constrained_intra=0 / bframes=3 / b_pyramid=2 / b_adapt=2 / b_bias=0 / direct=3 / weightb=1 / open_gop=0 / weightp=2 / keyint=250 / keyint_min=25 / scenecut=40 / intra_refresh=0 / rc_lookahead=50 / rc=2pass / mbtree=1 / bitrate=1500 / ratetol=1.0 / qcomp=0.60 / qpmin=0 / qpmax=69 / qpstep=4 / cplxblur=20.0 / qblur=0.5 / vbv_maxrate=31250 / vbv_bufsize=31250 / nal_hrd=none / filler=0 / ip_ratio=1.40 / aq=3:1.00
Encoded date      : UTC 2022-01-14 18:23:02
Tagged date      : UTC 2022-01-14 18:23:02
Codec configuration box    : avcC

Audio
ID        : 2
Format       : AAC LC
Format/Info      : Advanced Audio Codec Low Complexity
Codec ID       : mp4a-40-2
Duration       : 1 h 42 min
Bit rate mode      : Constant
Bit rate       : 224 kb/s
Channel(s)       : 6 channels
Channel layout      : C L R Ls Rs LFE
Sampling rate      : 48.0 kHz
Frame rate       : 46.875 FPS (1024 SPF)
Compression mode     : Lossy
Stream size      : 164 MiB (13%)
Language       : English
Default       : Yes
Alternate group      : 1
Encoded date      : UTC 2022-01-14 18:23:02
Tagged date      : UTC 2022-01-14 18:23:02


悠悠MP4_MP4电影下载_逃离Marwin Escape.from.Marwin.2018.720p.BluRay.H264.AAC-RARBG 1.24 GB
悠悠MP4_MP4电影下载_逃离Marwin Escape.from.Marwin.2018.720p.BluRay.H264.AAC-RARBG 1.24 GB
悠悠MP4_MP4电影下载_逃离Marwin Escape.from.Marwin.2018.720p.BluRay.H264.AAC-RARBG 1.24 GB

磁力链接

magnet:?xt=urn:btih:af8bacd50c158de21f8a150ddc9a936dc33d42e1
上传的附件:
最新回复 (0)
返回
本站所有资源均收集自互联网,没有提供影片资源存储, 也未参与录制、上传,若本站收录的资源无意侵犯了您的权益, 请联系邮箱:gogoimgs#gmail.com(#[email protected])