[更早] [欧美] [历史] [x265-4K] 大逃亡 The.Great.Escape.1963.2160p.BluRay.x265.10bit.SDR.DTS-HD.MA.5.1-B0MBARDiERS 54.21 GB

uump4 4天前 89

悠悠MP4_MP4电影下载_大逃亡 The.Great.Escape.1963.2160p.BluRay.x265.10bit.SDR.DTS-HD.MA.5.1-B0MBARDiERS 54.21 GB

◎片  名 大逃亡 The Great Escape / 龙虎榜(港) / 第三集中营(台) / 胜利大逃亡 / 绝处逢生 / 胜利逃亡
◎年  代 1963
◎产  地 美国
◎类  别 剧情 / 历史 / 冒险
◎语  言 英语 / 德语 / 法语 / 俄语 / 西班牙语
◎上映日期 1963-07-04(美国)
◎IMDb评分  8.2/10 from 237257 users
◎IMDb链接  https://www.imdb.com/title/tt0057115/
◎豆瓣评分 8.3/10 from 8310 users
◎豆瓣链接 https://movie.douban.com/subject/1294947/
◎片  长 172分钟
◎导  演 约翰·斯特奇斯 John Sturges
◎编  剧 保罗·布里克西尔 Paul Brickhill
       詹姆斯·克拉韦尔 James Clavell
       威廉·赖利·伯内特 W.R. Burnett
◎主  演 史蒂夫·麦奎因 Steve McQueen
       詹姆斯·加纳 James Garner
       理查德·阿滕伯勒 Richard Attenborough
       詹姆斯·唐纳德 James Donald
       查尔斯·布朗森 Charles Bronson
       唐纳德·普利森斯 Donald Pleasence
       詹姆斯·柯本 James Coburn
       汉斯·海西默 Hannes Messemer
       大卫·麦考姆 David McCallum
       戈登·杰克逊 Gordon Jackson
       约翰·莱顿 John Leyton
       Angus Lennie Angus Lennie
       奈杰尔·斯托克 Nigel Stock
       Robert Graf Robert Graf
       裘德·泰勒 Jud Taylor
       Hans Reiser Hans Reiser
       哈里·里鲍尔 Harry Riebauer
       威廉·拉塞尔 William Russell
       Robert Freitag Robert Freitag
       Ulrich Beiger Ulrich Beiger
       乔治·迈克尔 George Mikell
       劳伦斯·蒙田 Lawrence Montaigne
       Til Kiwe Til Kiwe
       海因茨·韦斯 Heinz Weiss
       汤姆·亚当斯 Tom Adams
       卡尔-奥托·阿伯提 Karl-Otto Alberty
       罗伯特·格拉夫 Robert Graf

◎标  签 

◎简  介

  二战期间,德军的战俘营里,每个人都在渴望着自由。美国人希尔(史蒂夫•麦奎因 Steve McQueen 饰)在进入战俘营的第一天起,就一直计划着越狱。虽然他的十多次逃跑都以失败告终,但希尔从未放弃。这次,希尔和英国军官罗杰计划秘密挖掘隧道带领250人一起越狱。所有人都贡献出了自己的一分力配合这次计划,有人专门负责制作大家逃跑后需要穿着的平民服装、有人负责做假证件、还有人负责储备食品等等。然而就在他们的隧道大功告成那天,隧道却被德军发现了。逃跑计划的日期一天天临近,希尔他们又开始新一轮的挖掘工作。

◎获奖情况

  第36届奥斯卡金像奖 (1964)
  最佳剪辑(提名)
  费里斯·韦伯斯特

  第21届金球奖 (1964)
  电影类 最佳剧情片(提名)



Video
ID           : 1
Format       : HEVC
Format/Info      : High Efficiency Video Coding
Format profile       : Main [email protected]@High
Codec ID         : V_MPEGH/ISO/HEVC
Duration         : 2 h 52 min
Bit rate         : 42.5 Mb/s
Width        : 3 840 pixels
Height       : 1 632 pixels
Display aspect ratio     : 2.35:1
Frame rate mode      : Constant
Frame rate       : 23.976 (24000/1001) FPS
Color space      : YUV
Chroma subsampling       : 4:2:0 (Type 2)
Bit depth        : 10 bits
Bits/(Pixel*Frame)       : 0.283
Stream size      : 51.1 GiB (95%)
Writing library      : x265 3.5+20-17839cc0d:[Windows][GCC 11.2.0][64 bit] 10bit
Encoding settings        : cpuid=1176575 / frame-threads=5 / numa-pools=36 / wpp / no-pmode / no-pme / no-psnr / no-ssim / log-level=2 / input-csp=1 / input-res=3840x1632 / interlace=0 / total-frames=247786 / level-idc=51 / high-tier=1 / uhd-bd=0 / ref=4 / no-allow-non-conformance / repeat-headers / annexb / aud / no-eob / no-eos / hrd / info / hash=0 / no-temporal-layers / open-gop / min-keyint=23 / keyint=250 / gop-lookahead=0 / bframes=4 / b-adapt=2 / b-pyramid / bframe-bias=0 / rc-lookahead=25 / lookahead-slices=4 / scenecut=40 / no-hist-scenecut / radl=0 / no-splice / no-intra-refresh / ctu=64 / min-cu-size=8 / rect / no-amp / max-tu-size=32 / tu-inter-depth=1 / tu-intra-depth=1 / limit-tu=0 / rdoq-level=2 / dynamic-rd=0.00 / no-ssim-rd / signhide / no-tskip / nr-intra=0 / nr-inter=0 / no-constrained-intra / strong-intra-smoothing / max-merge=3 / limit-refs=3 / limit-modes / me=3 / subme=3 / merange=57 / temporal-mvp / no-frame-dup / no-hme / weightp / no-weightb / no-analyze-src-pics / deblock=-3:-3 / no-sao / no-sao-non-deblock / rd=4 / selective-sao=0 / no-early-skip / rskip / no-fast-intra / no-tskip-fast / no-cu-lossless / no-b-intra / no-splitrd-skip / rdpenalty=0 / psy-rd=2.00 / psy-rdoq=1.00 / no-rd-refine / no-lossless / cbqpoffs=0 / crqpoffs=0 / rc=crf / crf=21.3 / qcomp=0.60 / qpstep=4 / stats-write=0 / stats-read=0 / vbv-maxrate=160000 / vbv-bufsize=160000 / vbv-init=0.9 / min-vbv-fullness=50.0 / max-vbv-fullness=80.0 / crf-max=0.0 / crf-min=0.0 / ipratio=1.40 / pbratio=1.30 / aq-mode=2 / aq-strength=1.00 / cutree / zone-count=0 / no-strict-cbr / qg-size=32 / no-rc-grain / qpmax=69 / qpmin=0 / no-const-vbv / sar=1 / overscan=0 / videoformat=5 / range=0 / colorprim=1 / transfer=1 / colormatrix=1 / chromaloc=1 / chromaloc-top=2 / chromaloc-bottom=2 / display-window=0 / cll=0,0 / min-luma=0 / max-luma=1023 / log2-max-poc-lsb=8 / vui-timing-info / vui-hrd-info / slices=1 / no-opt-qp-pps / no-opt-ref-list-length-pps / no-multi-pass-opt-rps / scenecut-bias=0.05 / hist-threshold=0.03 / no-opt-cu-delta-qp / no-aq-motion / no-hdr10 / no-hdr10-opt / no-dhdr10-opt / no-idr-recovery-sei / analysis-reuse-level=0 / analysis-save-reuse-level=0 / analysis-load-reuse-level=0 / scale-factor=0 / refine-intra=0 / refine-inter=0 / refine-mv=1 / refine-ctu-distortion=0 / no-limit-sao / ctu-info=0 / no-lowpass-dct / refine-analysis-type=0 / copy-pic=1 / max-ausize-factor=1.0 / no-dynamic-refine / no-single-sei / no-hevc-aq / no-svt / no-field / qp-adaptation-range=1.00 / scenecut-aware-qp=0conformance-window-offsets / right=0 / bottom=0 / decoder-max-rate=0 / no-vbv-live-multi-pass
Default          : Yes
Forced       : No
Color range      : Limited
Color primaries      : BT.709
Transfer characteristics     : BT.709
Matrix coefficients      : BT.709

Audio #1
ID           : 2
Format       : DTS XLL
Format/Info      : Digital Theater Systems
Commercial name      : DTS-HD Master Audio
Codec ID         : A_DTS
Duration         : 2 h 52 min
Bit rate mode        : Variable
Bit rate         : 1 891 kb/s
Channel(s)       : 6 channels
Channel layout       : C L R Ls Rs LFE
Sampling rate        : 48.0 kHz
Frame rate       : 93.750 FPS (512 SPF)
Bit depth        : 24 bits
Compression mode     : Lossless
Stream size      : 2.28 GiB (4%)
Language         : English
Default          : Yes
Forced       : No

Audio #2
ID           : 3
Format       : AAC LC
Format/Info      : Advanced Audio Codec Low Complexity
Codec ID         : A_AAC-2
Duration         : 2 h 52 min
Bit rate         : 83.6 kb/s
Channel(s)       : 2 channels
Channel layout       : L R
Sampling rate        : 48.0 kHz
Frame rate       : 46.875 FPS (1024 SPF)
Compression mode     : Lossy
Delay relative to video      : 9 ms
Stream size      : 103 MiB (0%)
Title        : Commentary 1
Language         : English
Default          : No
Forced       : No

Audio #3
ID           : 4
Format       : AAC LC
Format/Info      : Advanced Audio Codec Low Complexity
Codec ID         : A_AAC-2
Duration         : 2 h 52 min
Bit rate         : 87.6 kb/s
Channel(s)       : 2 channels
Channel layout       : L R
Sampling rate        : 48.0 kHz
Frame rate       : 46.875 FPS (1024 SPF)
Compression mode     : Lossy
Delay relative to video      : 9 ms
Stream size      : 108 MiB (0%)
Title        : Commentary 2
Language         : English
Default          : No
Forced       : No

Text
ID           : 5
Format       : PGS
Muxing mode      : zlib
Codec ID         : S_HDMV/PGS
Codec ID/Info        : Picture based subtitle format used on BDs/HD-DVDs
Duration         : 2 h 45 min
Bit rate         : 19.4 kb/s
Count of elements        : 2808
Stream size      : 22.9 MiB (0%)
Title        : English
Language         : English
Default          : No
Forced       : No

Menu
00:00:00.000         : en:Chapter 01
00:06:57.834         : en:Chapter 02
00:22:12.456         : en:Chapter 03
00:44:09.772         : en:Chapter 04
01:02:12.854         : en:Chapter 05
01:25:37.799         : en:Chapter 06
01:44:45.404         : en:Chapter 07
02:02:54.617         : en:Chapter 08
02:27:16.036         : en:Chapter 09
02:40:30.788         : en:Chapter 10
02:52:13.698         : en:Chapter 11



悠悠MP4_MP4电影下载_大逃亡 The.Great.Escape.1963.2160p.BluRay.x265.10bit.SDR.DTS-HD.MA.5.1-B0MBARDiERS 54.21 GB
悠悠MP4_MP4电影下载_大逃亡 The.Great.Escape.1963.2160p.BluRay.x265.10bit.SDR.DTS-HD.MA.5.1-B0MBARDiERS 54.21 GB
悠悠MP4_MP4电影下载_大逃亡 The.Great.Escape.1963.2160p.BluRay.x265.10bit.SDR.DTS-HD.MA.5.1-B0MBARDiERS 54.21 GB

磁力链接

magnet:?xt=urn:btih:30239669d402a4da82bc7a86f4f26ffa4729156d

上传的附件:
最新回复 (0)
返回
本站所有资源均收集自互联网,没有提供影片资源存储, 也未参与录制、上传,若本站收录的资源无意侵犯了您的权益, 请联系邮箱:gogoimgs#gmail.com(#[email protected])