[2022] [欧美] [剧情] [x265-1080P] 清道夫:布局 Ray.Donovan.The.Movie.2022.1080p.WEBRip.x265-RARBG 1.55 GB

uump4 5天前 705

悠悠MP4_MP4电影下载_清道夫:布局 Ray.Donovan.The.Movie.2022.1080p.WEBRip.x265-RARBG 1.55 GB

◎片  名 清道夫:布局 Ray Donovan / 清道夫电影版 / Ray Donovan: The Movie
◎年  代 2022
◎产  地 美国
◎类  别 剧情
◎语  言 英语
◎上映日期 2022-01-14(美国)
◎IMDb评分  7.7/10 from 16 users
◎IMDb链接  https://www.imdb.com/title/tt14124268/
◎豆瓣评分 /10 from 0 users
◎豆瓣链接 https://movie.douban.com/subject/35376733/
◎片  长 
◎导  演 戴维·霍兰德 David Hollander
◎编  剧 戴维·霍兰德 David Hollander
       列维·施瑞博尔 Liev Schreiber
◎主  演 列维·施瑞博尔 Liev Schreiber
       凯瑞斯·多西 Kerris Dorsey
       强·沃特 Jon Voight
       凯瑞·康顿 Kerry Condon
       埃迪·马森 Eddie Marsan
       达什·米霍克 Dash Mihok
       大卫·帕特里克·凯利 David Patrick Kelly
       阿曼达·米夏卡 AJ Michalka
       雪莉·李·拉尔夫 Sheryl Lee Ralph
       普奇·豪尔 Pooch Hall
       克里斯·彼得罗夫斯基 Chris Petrovski
       克里斯托弗·格雷 Christopher Gray
       泰·亚历山大 Tye Alexander
       米克·奥罗克 Mick O'Rourke
       帕特里克·克莱因 Patrick Klein
       Daniel Hirsh Daniel Hirsh

◎标  签 

◎简  介

  #好莱坞影讯# 列维·施瑞博尔主演的Showtime剧集《清道夫》将推出电影版!施瑞博尔将回归主演,并将与剧集运作人戴维·霍兰德共同操刀剧本,霍兰德担任该片导演。强·沃特、凯瑞斯·多西也将回归出演。该片故事将承接《清道夫》第七季,米奇继续出手,雷决心在他造成更多屠杀之前找到他并阻止他。该片计划于今年晚些时候在纽约开拍。



Video
ID           : 1
Format       : HEVC
Format/Info      : High Efficiency Video Coding
Format profile       : Main [email protected]@Main
Codec ID         : hev1
Codec ID/Info        : High Efficiency Video Coding
Duration         : 1 h 39 min
Bit rate         : 2 002 kb/s
Width        : 1 920 pixels
Height       : 960 pixels
Display aspect ratio     : 2.000
Frame rate mode      : Constant
Frame rate       : 23.976 (24000/1001) FPS
Color space      : YUV
Chroma subsampling       : 4:2:0
Bit depth        : 10 bits
Bits/(Pixel*Frame)       : 0.045
Stream size      : 1.39 GiB (90%)
Writing library      : x265 3.3+4-rarbg-30eb4de83092:[Linux][GCC 8.3.1][64 bit] 10bit
Encoding settings        : cpuid=1111039 / frame-threads=4 / wpp / no-pmode / no-pme / no-psnr / no-ssim / log-level=2 / input-csp=1 / input-res=1920x960 / interlace=0 / total-frames=0 / level-idc=0 / high-tier=1 / uhd-bd=0 / ref=4 / no-allow-non-conformance / no-repeat-headers / annexb / no-aud / no-hrd / info / hash=0 / no-temporal-layers / open-gop / min-keyint=23 / keyint=250 / gop-lookahead=0 / bframes=4 / b-adapt=2 / b-pyramid / bframe-bias=0 / rc-lookahead=25 / lookahead-slices=4 / scenecut=40 / hist-scenecut=0 / radl=0 / no-splice / no-intra-refresh / ctu=64 / min-cu-size=8 / rect / no-amp / max-tu-size=32 / tu-inter-depth=1 / tu-intra-depth=1 / limit-tu=0 / rdoq-level=2 / dynamic-rd=0.00 / no-ssim-rd / signhide / no-tskip / nr-intra=0 / nr-inter=0 / no-constrained-intra / strong-intra-smoothing / max-merge=3 / limit-refs=3 / limit-modes / me=3 / subme=3 / merange=57 / temporal-mvp / no-frame-dup / no-hme / weightp / no-weightb / no-analyze-src-pics / deblock=0:0 / no-sao / no-sao-non-deblock / rd=4 / selective-sao=0 / no-early-skip / rskip / no-fast-intra / no-tskip-fast / no-cu-lossless / no-b-intra / no-splitrd-skip / rdpenalty=0 / psy-rd=2.00 / psy-rdoq=1.00 / no-rd-refine / no-lossless / cbqpoffs=0 / crqpoffs=0 / rc=abr / bitrate=2000 / qcomp=0.60 / qpstep=4 / stats-write=0 / stats-read=2 / cplxblur=20.0 / qblur=0.5 / ipratio=1.40 / pbratio=1.30 / aq-mode=3 / aq-strength=1.00 / cutree / zone-count=0 / no-strict-cbr / qg-size=32 / no-rc-grain / qpmax=69 / qpmin=0 / no-const-vbv / sar=1 / overscan=0 / videoformat=5 / range=0 / colorprim=2 / transfer=2 / colormatrix=2 / chromaloc=0 / display-window=0 / cll=0,0 / min-luma=0 / max-luma=1023 / log2-max-poc-lsb=8 / vui-timing-info / vui-hrd-info / slices=1 / no-opt-qp-pps / no-opt-ref-list-length-pps / no-multi-pass-opt-rps / scenecut-bias=0.05 / hist-threshold=0.01 / no-opt-cu-delta-qp / no-aq-motion / no-hdr10 / no-hdr10-opt / no-dhdr10-opt / no-idr-recovery-sei / analysis-reuse-level=0 / analysis-save-reuse-level=0 / analysis-load-reuse-level=0 / scale-factor=0 / refine-intra=0 / refine-inter=0 / refine-mv=1 / refine-ctu-distortion=0 / no-limit-sao / ctu-info=0 / no-lowpass-dct / refine-analysis-type=0 / copy-pic=1 / max-ausize-factor=1.0 / no-dynamic-refine / no-single-sei / no-hevc-aq / no-svt / no-field / qp-adaptation-range=1.00 / no-scenecut-aware-qpconformance-window-offsets / right=0 / bottom=0
Encoded date         : UTC 2022-01-14 11:01:49
Tagged date      : UTC 2022-01-14 11:01:49
Codec configuration box      : hvcC

Audio
ID           : 2
Format       : AAC LC
Format/Info      : Advanced Audio Codec Low Complexity
Codec ID         : mp4a-40-2
Duration         : 1 h 39 min
Bit rate mode        : Constant
Bit rate         : 224 kb/s
Channel(s)       : 6 channels
Channel layout       : C L R Ls Rs LFE
Sampling rate        : 48.0 kHz
Frame rate       : 46.875 FPS (1024 SPF)
Compression mode     : Lossy
Stream size      : 160 MiB (10%)
Language         : English
Default          : Yes
Alternate group      : 1
Encoded date         : UTC 2022-01-14 11:01:49
Tagged date      : UTC 2022-01-14 11:01:49



悠悠MP4_MP4电影下载_清道夫:布局 Ray.Donovan.The.Movie.2022.1080p.WEBRip.x265-RARBG 1.55 GB
悠悠MP4_MP4电影下载_清道夫:布局 Ray.Donovan.The.Movie.2022.1080p.WEBRip.x265-RARBG 1.55 GB
悠悠MP4_MP4电影下载_清道夫:布局 Ray.Donovan.The.Movie.2022.1080p.WEBRip.x265-RARBG 1.55 GB

磁力链接

magnet:?xt=urn:btih:2911068685be88025f4714bfc2c4f48251e5dac1

上传的附件:
最新回复 (0)
返回
本站所有资源均收集自互联网,没有提供影片资源存储, 也未参与录制、上传,若本站收录的资源无意侵犯了您的权益, 请联系邮箱:gogoimgs#gmail.com(#[email protected])