[2018] [欧美] [纪录] [x264-720P] 数字时代的恋爱游戏 Swiped.Hooking.Up.In.The.Digital.Age.2018.720p.WEB.H264-CBFM 2.00 GB

uump4 6天前 120

悠悠MP4_MP4电影下载_数字时代的恋爱游戏 Swiped.Hooking.Up.In.The.Digital.Age.2018.720p.WEB.H264-CBFM 2.00 GB

◎片  名 数字时代的恋爱游戏 Swiped: Hooking Up in the Digital Age
◎年  代 2018
◎产  地 美国
◎类  别 纪录片
◎语  言 英语
◎上映日期 2018-09-10(美国)
◎IMDb评分  5.7/10 from 320 users
◎IMDb链接  https://www.imdb.com/title/tt8839634/
◎豆瓣评分 /10 from 0 users
◎豆瓣链接 https://movie.douban.com/subject/34835955/
◎片  长 60分钟
◎导  演 
◎编  剧 
◎主  演 

◎标  签 

◎简  介

  Author Nancy Jo Sales investigates the online dating industry's impact on gender issues, examining how it has changed the way people date, mate and think about the apps on their phones, and explores how the act of swiping affects the ability to find true and lasting connections.



Video
ID           : 1
Format       : AVC
Format/Info      : Advanced Video Codec
Format profile       : [email protected]
Format settings      : CABAC / 4 Ref Frames
Format settings, CABAC       : Yes
Format settings, Reference frames    : 4 frames
Codec ID         : V_MPEG4/ISO/AVC
Duration         : 1 h 26 min
Bit rate         : 3 121 kb/s
Width        : 1 280 pixels
Height       : 720 pixels
Display aspect ratio     : 16:9
Frame rate mode      : Constant
Frame rate       : 23.976 (24000/1001) FPS
Color space      : YUV
Chroma subsampling       : 4:2:0
Bit depth        : 8 bits
Scan type        : Progressive
Bits/(Pixel*Frame)       : 0.141
Stream size      : 1.88 GiB (94%)
Default          : Yes
Forced       : No

Audio
ID           : 2
Format       : AC-3
Format/Info      : Audio Coding 3
Commercial name      : Dolby Digital
Codec ID         : A_AC3
Duration         : 1 h 26 min
Bit rate mode        : Constant
Bit rate         : 192 kb/s
Channel(s)       : 2 channels
Channel layout       : L R
Sampling rate        : 48.0 kHz
Frame rate       : 31.250 FPS (1536 SPF)
Compression mode     : Lossy
Stream size      : 119 MiB (6%)
Language         : English
Service kind         : Complete Main
Default          : Yes
Forced       : No

Text
ID           : 3
Format       : UTF-8
Codec ID         : S_TEXT/UTF8
Codec ID/Info        : UTF-8 Plain Text
Duration         : 1 h 24 min
Bit rate         : 123 b/s
Count of elements        : 1892
Stream size      : 76.7 KiB (0%)
Language         : English
Default          : No
Forced       : No



Screenshots:
悠悠MP4_MP4电影下载_数字时代的恋爱游戏 Swiped.Hooking.Up.In.The.Digital.Age.2018.720p.WEB.H264-CBFM 2.00 GB
Drunk,

but
still..

C B F M

Presenting

100+
Swiped.Hooking.Up.In.The.Digital.Age.2018.72p.WEB.H264-CBFM

info

Duration ..........: 1h 26mn
Size ..............: 2.00 GiB
Quality ...........: H264 23.976 FPS / 3 121 Kbps
Resolution ........: 1280x720
Audio .............: AC-3 2.0
Bitrate ...........: 48.0 KHz / 192 Kbps

notes

www.imdb.com/title/tt8839634

C B F M 2o17

磁力链接

magnet:?xt=urn:btih:ca60c18d680c6df26b43e95fd22fb1e976ae6c17

上传的附件:
最新回复 (0)
返回
本站所有资源均收集自互联网,没有提供影片资源存储, 也未参与录制、上传,若本站收录的资源无意侵犯了您的权益, 请联系邮箱:gogoimgs#gmail.com(#[email protected])