[2020] [欧美] [恐怖] [x264-1080P] 魂飞魄不散 The.Free.Fall.2021.1080p.WEBRip.DD5.1.x264-NOGRP 4.23 GB

uump4 6天前 288

悠悠MP4_MP4电影下载_魂飞魄不散 The.Free.Fall.2021.1080p.WEBRip.DD5.1.x264-NOGRP 4.23 GB

◎片  名 魂飞魄不散 The Free Fall / 自由落体 / 为自由逃奔 / 魂奔自由
◎年  代 2020
◎产  地 美国
◎类  别 恐怖
◎语  言 英语
◎上映日期 2020(美国)
◎IMDb评分  6.6/10 from 47 users
◎IMDb链接  https://www.imdb.com/title/tt10703978/
◎豆瓣评分 /10 from 0 users
◎豆瓣链接 https://movie.douban.com/subject/35161313/
◎片  长 
◎导  演 Adam Stilwell Adam Stilwell
◎编  剧 Kent Harper Kent Harper
◎主  演 安德莉亚·隆多 Andrea Londo
       肖恩·阿什莫 Shawn Ashmore
       简·巴德勒 Jane Badler
       小迈克尔·贝瑞 Michael Berry Jr.
       伊丽莎白·卡布奇诺 Elizabeth Cappuccino
       多米尼克·霍夫曼 Dominic Hoffman
       马克·塞特 Marc Senter
       黛安·阿亚拉·戈德纳 Diane Ayala Goldner
       杰基·达拉斯 Jackie Dallas
       塞缪尔·戴维斯 Samuel Davis

◎标  签 

◎简  介

  After attempting to take her own life, a young woman must wrestle with an overbearing husband.



Video
ID           : 1
Format       : AVC
Format/Info      : Advanced Video Codec
Format profile       : [email protected]
Format settings      : CABAC / 4 Ref Frames
Format settings, CABAC       : Yes
Format settings, Reference frames    : 4 frames
Codec ID         : V_MPEG4/ISO/AVC
Duration         : 1 h 22 min
Bit rate         : 6 951 kb/s
Width        : 1 920 pixels
Height       : 1 080 pixels
Display aspect ratio     : 16:9
Frame rate mode      : Constant
Frame rate       : 23.976 (24000/1001) FPS
Color space      : YUV
Chroma subsampling       : 4:2:0
Bit depth        : 8 bits
Scan type        : Progressive
Bits/(Pixel*Frame)       : 0.140
Stream size      : 4.01 GiB (95%)
Language         : English
Default          : Yes
Forced       : No
Color range      : Limited
Color primaries      : BT.709
Transfer characteristics     : BT.709
Matrix coefficients      : BT.709

Audio
ID           : 2
Format       : AC-3
Format/Info      : Audio Coding 3
Commercial name      : Dolby Digital
Codec ID         : A_AC3
Duration         : 1 h 22 min
Bit rate mode        : Constant
Bit rate         : 384 kb/s
Channel(s)       : 6 channels
Channel layout       : L R C LFE Ls Rs
Sampling rate        : 48.0 kHz
Frame rate       : 31.250 FPS (1536 SPF)
Compression mode     : Lossy
Stream size      : 227 MiB (5%)
Language         : English
Service kind         : Complete Main
Default          : Yes
Forced       : No

Text
ID           : 3
Format       : UTF-8
Codec ID         : S_TEXT/UTF8
Codec ID/Info        : UTF-8 Plain Text
Duration         : 1 h 17 min
Bit rate         : 33 b/s
Count of elements        : 792
Stream size      : 19.1 KiB (0%)
Language         : English
Default          : Yes
Forced       : No



悠悠MP4_MP4电影下载_魂飞魄不散 The.Free.Fall.2021.1080p.WEBRip.DD5.1.x264-NOGRP 4.23 GB
悠悠MP4_MP4电影下载_魂飞魄不散 The.Free.Fall.2021.1080p.WEBRip.DD5.1.x264-NOGRP 4.23 GB
悠悠MP4_MP4电影下载_魂飞魄不散 The.Free.Fall.2021.1080p.WEBRip.DD5.1.x264-NOGRP 4.23 GB

磁力链接

magnet:?xt=urn:btih:8e29c5fe4f4aca1c83d156d207b4cb3f10a6ea7f

上传的附件:
最新回复 (0)
返回
本站所有资源均收集自互联网,没有提供影片资源存储, 也未参与录制、上传,若本站收录的资源无意侵犯了您的权益, 请联系邮箱:gogoimgs#gmail.com(#[email protected])