[2021] [欧美] [恐怖] [x264-1080P] La Patasola The.Curse.of.La.Patasola.2022.1080p.WEBRip.DD5.1.x264-NOGRP 4.19 GB

uump4 6天前 197

悠悠MP4_MP4电影下载_La Patasola The.Curse.of.La.Patasola.2022.1080p.WEBRip.DD5.1.x264-NOGRP 4.19 GB

◎片  名 La Patasola
◎年  代 2021
◎产  地 美国
◎类  别 恐怖
◎语  言 英语
◎上映日期 2022-01-14(美国)
◎IMDb评分 
◎IMDb链接  https://www.imdb.com/title/tt12790908/
◎豆瓣评分 /10 from 0 users
◎豆瓣链接 https://movie.douban.com/subject/35289260/
◎片  长 
◎导  演 
◎编  剧 
◎主  演 纳贾·布雷德利 Najah Bradley

◎标  签 

◎简  介

  On a weekend camping trip, two struggling couples are haunted by La Patasola, a famed vampiric monster from Amazonian folklore, testing their relationships, morality, and will to survive.



Video
ID           : 1
Format       : AVC
Format/Info      : Advanced Video Codec
Format profile       : [email protected]
Format settings      : CABAC / 5 Ref Frames
Format settings, CABAC       : Yes
Format settings, Reference frames    : 5 frames
Codec ID         : V_MPEG4/ISO/AVC
Duration         : 1 h 24 min
Bit rate         : 6 731 kb/s
Width        : 1 912 pixels
Height       : 796 pixels
Display aspect ratio     : 2.40:1
Frame rate mode      : Constant
Frame rate       : 23.976 (24000/1001) FPS
Color space      : YUV
Chroma subsampling       : 4:2:0
Bit depth        : 8 bits
Scan type        : Progressive
Bits/(Pixel*Frame)       : 0.184
Stream size      : 3.96 GiB (95%)
Language         : English
Default          : Yes
Forced       : No
Color range      : Limited
Color primaries      : BT.709
Transfer characteristics     : BT.709
Matrix coefficients      : BT.709

Audio
ID           : 2
Format       : AC-3
Format/Info      : Audio Coding 3
Commercial name      : Dolby Digital
Codec ID         : A_AC3
Duration         : 1 h 24 min
Bit rate mode        : Constant
Bit rate         : 384 kb/s
Channel(s)       : 6 channels
Channel layout       : L R C LFE Ls Rs
Sampling rate        : 48.0 kHz
Frame rate       : 31.250 FPS (1536 SPF)
Compression mode     : Lossy
Stream size      : 231 MiB (5%)
Language         : English
Service kind         : Complete Main
Default          : Yes
Forced       : No

Text
ID           : 3
Format       : UTF-8
Codec ID         : S_TEXT/UTF8
Codec ID/Info        : UTF-8 Plain Text
Duration         : 1 h 12 min
Bit rate         : 48 b/s
Count of elements        : 1014
Stream size      : 25.7 KiB (0%)
Language         : English
Default          : Yes
Forced       : No



悠悠MP4_MP4电影下载_La Patasola The.Curse.of.La.Patasola.2022.1080p.WEBRip.DD5.1.x264-NOGRP 4.19 GB
悠悠MP4_MP4电影下载_La Patasola The.Curse.of.La.Patasola.2022.1080p.WEBRip.DD5.1.x264-NOGRP 4.19 GB
悠悠MP4_MP4电影下载_La Patasola The.Curse.of.La.Patasola.2022.1080p.WEBRip.DD5.1.x264-NOGRP 4.19 GB

磁力链接

magnet:?xt=urn:btih:ebf19afa318e05c25ea92141217e703133c7268d

上传的附件:
最新回复 (0)
返回
本站所有资源均收集自互联网,没有提供影片资源存储, 也未参与录制、上传,若本站收录的资源无意侵犯了您的权益, 请联系邮箱:gogoimgs#gmail.com(#[email protected])