[2017] [欧美] [恐怖] [x264-1080P] The Wake The.Wake.2017.1080p.AMZN.WEBRip.DDP2.0.x264-PTP 5.90 GB

uump4 6天前 111

悠悠MP4_MP4电影下载_The Wake The.Wake.2017.1080p.AMZN.WEBRip.DDP2.0.x264-PTP 5.90 GB

◎片  名 The Wake
◎年  代 2017
◎产  地 美国
◎类  别 恐怖
◎语  言 英语
◎上映日期 2017-07-04(美国)
◎IMDb评分  4.5/10 from 2059 users
◎IMDb链接  https://www.imdb.com/title/tt2931376/
◎豆瓣评分 /10 from 0 users
◎豆瓣链接 https://movie.douban.com/subject/27082285/
◎片  长 1h 26min
◎导  演 
◎编  剧  Allie Rivera
◎主  演 Kristen Dalton Kristen Dalton

◎标  签 

◎简  介

  A group of friends attend the wake of a child they accidentally killed with their car. Once at the wake, they find themselves trapped and stalked by a masked [email protected]



Video
ID           : 1
Format       : AVC
Format/Info      : Advanced Video Codec
Format profile       : [email protected]
Format settings      : CABAC / 4 Ref Frames
Format settings, CABAC       : Yes
Format settings, Reference frames    : 4 frames
Codec ID         : V_MPEG4/ISO/AVC
Duration         : 1 h 26 min
Bit rate mode        : Constant
Bit rate         : 10 000 kb/s
Width        : 1 920 pixels
Height       : 1 080 pixels
Display aspect ratio     : 16:9
Frame rate mode      : Constant
Frame rate       : 23.976 (24000/1001) FPS
Color space      : YUV
Chroma subsampling       : 4:2:0
Bit depth        : 8 bits
Scan type        : Progressive
Bits/(Pixel*Frame)       : 0.201
Stream size      : 5.77 GiB (98%)
Default          : Yes
Forced       : No
Color range      : Limited
Color primaries      : BT.709
Transfer characteristics     : BT.709
Matrix coefficients      : BT.709

Audio
ID           : 2
Format       : E-AC-3
Format/Info      : Enhanced AC-3
Commercial name      : Dolby Digital Plus
Codec ID         : A_EAC3
Duration         : 1 h 26 min
Bit rate mode        : Constant
Bit rate         : 224 kb/s
Channel(s)       : 2 channels
Channel layout       : L R
Sampling rate        : 48.0 kHz
Frame rate       : 31.250 FPS (1536 SPF)
Compression mode     : Lossy
Stream size      : 139 MiB (2%)
Language         : English
Service kind         : Complete Main
Default          : Yes
Forced       : No

Text
ID           : 3
Format       : UTF-8
Codec ID         : S_TEXT/UTF8
Codec ID/Info        : UTF-8 Plain Text
Duration         : 1 h 26 min
Bit rate         : 44 b/s
Count of elements        : 1213
Stream size      : 28.2 KiB (0%)
Language         : English
Default          : No
Forced       : No



悠悠MP4_MP4电影下载_The Wake The.Wake.2017.1080p.AMZN.WEBRip.DDP2.0.x264-PTP 5.90 GB
悠悠MP4_MP4电影下载_The Wake The.Wake.2017.1080p.AMZN.WEBRip.DDP2.0.x264-PTP 5.90 GB
悠悠MP4_MP4电影下载_The Wake The.Wake.2017.1080p.AMZN.WEBRip.DDP2.0.x264-PTP 5.90 GB

磁力链接

magnet:?xt=urn:btih:209beff11e86fe4607dc66f85ec3739dc4364aef

上传的附件:
最新回复 (0)
返回
本站所有资源均收集自互联网,没有提供影片资源存储, 也未参与录制、上传,若本站收录的资源无意侵犯了您的权益, 请联系邮箱:gogoimgs#gmail.com(#[email protected])