[2022] [欧美] [喜剧] [x264-720P] 性吸引力 Sex.Appeal.2022.720p.WEB.H264-CUPCAKES 1.17 GB

uump4 6天前 706

悠悠MP4_MP4电影下载_性吸引力 Sex.Appeal.2022.720p.WEB.H264-CUPCAKES 1.17 GB

◎片  名 性吸引力 Sex Appeal / 性感的吸引力
◎年  代 2022
◎产  地 美国
◎类  别 喜剧
◎语  言 英语
◎上映日期 2022-01-14(美国)
◎IMDb评分 
◎IMDb链接  https://www.imdb.com/title/tt11203022/
◎豆瓣评分 /10 from 0 users
◎豆瓣链接 https://movie.douban.com/subject/34942319/
◎片  长 
◎导  演 
◎编  剧 塔特 汉约克 Tate Hanyok
◎主  演 米卡·阿卜杜拉 Mika Abdalla
       杰克·索特 Jake Short

◎标  签 

◎简  介

  米卡·阿卜杜拉(《青春相对论》)、杰克·索特([社交网络追爱记])将主演青春喜剧[吸引力](Sex Appeal,暂译)。该片由塔莉亚·奥斯汀([帮帮我])执导,塔特·汉约克操刀剧本。故事讲述功成名就的女明星艾弗里·汉森-怀特与男友异地相恋,当男友暗示想在即将到来的舞会上进一步发展两人的关系后,她开始面对自己的欲望并且学习爱情的模式,过程中,她意识到感情需要的是感性而不是理性。



Video
ID           : 1
Format       : AVC
Format/Info      : Advanced Video Codec
Format profile       : [email protected]
Format settings      : CABAC / 5 Ref Frames
Format settings, CABAC       : Yes
Format settings, Reference frames    : 5 frames
Codec ID         : V_MPEG4/ISO/AVC
Duration         : 1 h 30 min
Bit rate         : 1 552 kb/s
Width        : 1 280 pixels
Height       : 720 pixels
Display aspect ratio     : 16:9
Frame rate mode      : Constant
Frame rate       : 24.000 FPS
Color space      : YUV
Chroma subsampling       : 4:2:0
Bit depth        : 8 bits
Scan type        : Progressive
Bits/(Pixel*Frame)       : 0.070
Stream size      : 1 005 MiB (84%)
Default          : Yes
Forced       : No

Audio
ID           : 2
Format       : E-AC-3
Format/Info      : Enhanced AC-3
Commercial name      : Dolby Digital Plus
Codec ID         : A_EAC3
Duration         : 1 h 30 min
Bit rate mode        : Constant
Bit rate         : 256 kb/s
Channel(s)       : 6 channels
Channel layout       : L R C LFE Ls Rs
Sampling rate        : 48.0 kHz
Frame rate       : 31.250 FPS (1536 SPF)
Compression mode     : Lossy
Stream size      : 166 MiB (14%)
Language         : English
Service kind         : Complete Main
Default          : Yes
Forced       : No

Text #1
ID           : 3
Format       : UTF-8
Codec ID         : S_TEXT/UTF8
Codec ID/Info        : UTF-8 Plain Text
Title        : English
Language         : English
Default          : No
Forced       : No

Text #2
ID           : 4
Format       : UTF-8
Codec ID         : S_TEXT/UTF8
Codec ID/Info        : UTF-8 Plain Text
Title        : Spanish
Language         : Spanish
Default          : No
Forced       : No



Screenshots:
悠悠MP4_MP4电影下载_性吸引力 Sex.Appeal.2022.720p.WEB.H264-CUPCAKES 1.17 GB
Sex.Appeal.2022.720p.WEB.H264-CUPCAKES

磁力链接

magnet:?xt=urn:btih:609b1fd884c528efe92adaa3b7c1935e8db64658

上传的附件:
最新回复 (0)
返回
本站所有资源均收集自互联网,没有提供影片资源存储, 也未参与录制、上传,若本站收录的资源无意侵犯了您的权益, 请联系邮箱:gogoimgs#gmail.com(#[email protected])