[2021] [欧美] [剧情] [x265-1080P] 麦克白的悲剧 The.Tragedy.of.Macbeth.2021.1080p.WEBRip.x265-RARBG 1.64 GB

uump4 6天前 353

悠悠MP4_MP4电影下载_麦克白的悲剧 The.Tragedy.of.Macbeth.2021.1080p.WEBRip.x265-RARBG 1.64 GB

◎片  名 麦克白的悲剧 The Tragedy of Macbeth / Macbeth
◎年  代 2021
◎产  地 美国
◎类  别 剧情
◎语  言 英语
◎上映日期 2021-09-24(纽约电影节) / 2021-12-25(美国) / 2022-01-14(美国网络)
◎IMDb评分  7.7/10 from 3273 users
◎IMDb链接  https://www.imdb.com/title/tt10095582/
◎豆瓣评分 7.8/10 from 327 users
◎豆瓣链接 https://movie.douban.com/subject/33386178/
◎片  长 105分钟
◎导  演 乔尔·科恩 Joel Coen
◎编  剧 乔尔·科恩 Joel Coen
       威廉·莎士比亚 William Shakespeare
◎主  演 丹泽尔·华盛顿 Denzel Washington
       弗兰西斯·麦克多蒙德 Frances McDormand
       阿历克斯·哈赛尔 Alex Hassell
       博迪·卡维尔 Bertie Carvel
       布莱丹·格里森 Brendan Gleeson
       科里·霍金斯 Corey Hawkins
       哈利·米尔林 Harry Melling
       迈尔斯·安德森 Miles Anderson
       马特·赫尔姆 Matt Helm
       摩西·英格拉姆 Moses Ingram
       凯瑟琳·亨特 Kathryn Hunter
       布莱恩·汤普森 Brian Thompson
       斯蒂芬·鲁特 Stephen Root
       罗伯特·吉尔贝托 Robert Gilbert
       伊桑·哈钦森 Ethan Hutchison
       理查德·肖特 Richard Short
       西恩·帕特里克·汤玛斯 Sean Patrick Thomas
       拉尔夫·伊内森 Ralph Ineson
       杰弗森·梅斯 Jefferson Mays
       奥利维亚·华盛顿 Olivia Washington
       韦恩·T·卡尔 Wayne T. Carr
       雅各布·麦卡锡 Jacob McCarthy
       麦克斯·贝克 Max Baker

◎标  签 

◎简  介

  影片以华盛顿饰演的麦克白为主线,他被三个女巫说服,认为自己注定要成为苏格兰国王。他和野心勃勃的妻子麦克白夫人(麦克多蒙德饰)一起,开始把预言变成现实……结果是大量的鲜血、背叛和死亡。格里森饰演国王邓肯,米尔林饰演邓肯的儿子马尔科姆,霍金斯饰演麦克达夫。布鲁诺·德尔邦内尔([醉乡民谣])担任摄影师。

◎获奖情况

  第79届金球奖 (2022)
  电影类 剧情片最佳男主角(提名)
  丹泽尔·华盛顿

  第28届美国演员工会奖 (2022)
  电影奖 最佳男主角(提名)
  丹泽尔·华盛顿

  第87届纽约影评人协会奖 (2021)
  最佳女配角
  凯瑟琳·亨特



Video
ID           : 1
Format       : HEVC
Format/Info      : High Efficiency Video Coding
Format profile       : Main [email protected]@Main
Codec ID         : hev1
Codec ID/Info        : High Efficiency Video Coding
Duration         : 1 h 45 min
Bit rate         : 2 002 kb/s
Width        : 1 478 pixels
Height       : 1 080 pixels
Display aspect ratio     : 4:3
Frame rate mode      : Constant
Frame rate       : 23.976 (24000/1001) FPS
Color space      : YUV
Chroma subsampling       : 4:2:0
Bit depth        : 10 bits
Bits/(Pixel*Frame)       : 0.052
Stream size      : 1.47 GiB (90%)
Writing library      : x265 3.3+4-rarbg-30eb4de83092:[Linux][GCC 8.3.1][64 bit] 10bit
Encoding settings        : cpuid=1111039 / frame-threads=4 / wpp / no-pmode / no-pme / no-psnr / no-ssim / log-level=2 / input-csp=1 / input-res=1478x1080 / interlace=0 / total-frames=0 / level-idc=0 / high-tier=1 / uhd-bd=0 / ref=4 / no-allow-non-conformance / no-repeat-headers / annexb / no-aud / no-hrd / info / hash=0 / no-temporal-layers / open-gop / min-keyint=23 / keyint=250 / gop-lookahead=0 / bframes=4 / b-adapt=2 / b-pyramid / bframe-bias=0 / rc-lookahead=25 / lookahead-slices=4 / scenecut=40 / hist-scenecut=0 / radl=0 / no-splice / no-intra-refresh / ctu=64 / min-cu-size=8 / rect / no-amp / max-tu-size=32 / tu-inter-depth=1 / tu-intra-depth=1 / limit-tu=0 / rdoq-level=2 / dynamic-rd=0.00 / no-ssim-rd / signhide / no-tskip / nr-intra=0 / nr-inter=0 / no-constrained-intra / strong-intra-smoothing / max-merge=3 / limit-refs=3 / limit-modes / me=3 / subme=3 / merange=57 / temporal-mvp / no-frame-dup / no-hme / weightp / no-weightb / no-analyze-src-pics / deblock=0:0 / no-sao / no-sao-non-deblock / rd=4 / selective-sao=0 / no-early-skip / rskip / no-fast-intra / no-tskip-fast / no-cu-lossless / no-b-intra / no-splitrd-skip / rdpenalty=0 / psy-rd=2.00 / psy-rdoq=1.00 / no-rd-refine / no-lossless / cbqpoffs=0 / crqpoffs=0 / rc=abr / bitrate=2000 / qcomp=0.60 / qpstep=4 / stats-write=0 / stats-read=2 / cplxblur=20.0 / qblur=0.5 / ipratio=1.40 / pbratio=1.30 / aq-mode=3 / aq-strength=1.00 / cutree / zone-count=0 / no-strict-cbr / qg-size=32 / no-rc-grain / qpmax=69 / qpmin=0 / no-const-vbv / sar=1 / overscan=0 / videoformat=5 / range=0 / colorprim=2 / transfer=2 / colormatrix=2 / chromaloc=0 / display-window=0 / cll=0,0 / min-luma=0 / max-luma=1023 / log2-max-poc-lsb=8 / vui-timing-info / vui-hrd-info / slices=1 / no-opt-qp-pps / no-opt-ref-list-length-pps / no-multi-pass-opt-rps / scenecut-bias=0.05 / hist-threshold=0.01 / no-opt-cu-delta-qp / no-aq-motion / no-hdr10 / no-hdr10-opt / no-dhdr10-opt / no-idr-recovery-sei / analysis-reuse-level=0 / analysis-save-reuse-level=0 / analysis-load-reuse-level=0 / scale-factor=0 / refine-intra=0 / refine-inter=0 / refine-mv=1 / refine-ctu-distortion=0 / no-limit-sao / ctu-info=0 / no-lowpass-dct / refine-analysis-type=0 / copy-pic=1 / max-ausize-factor=1.0 / no-dynamic-refine / no-single-sei / no-hevc-aq / no-svt / no-field / qp-adaptation-range=1.00 / no-scenecut-aware-qpconformance-window-offsets / right=0 / bottom=0
Encoded date         : UTC 2022-01-14 05:12:37
Tagged date      : UTC 2022-01-14 05:12:37
Codec configuration box      : hvcC

Audio
ID           : 2
Format       : AAC LC
Format/Info      : Advanced Audio Codec Low Complexity
Codec ID         : mp4a-40-2
Duration         : 1 h 45 min
Duration_LastFrame       : -12 ms
Bit rate mode        : Constant
Bit rate         : 224 kb/s
Channel(s)       : 6 channels
Channel layout       : C L R Ls Rs LFE
Sampling rate        : 48.0 kHz
Frame rate       : 46.875 FPS (1024 SPF)
Compression mode     : Lossy
Stream size      : 168 MiB (10%)
Language         : English
Default          : Yes
Alternate group      : 1
Encoded date         : UTC 2022-01-14 05:12:37
Tagged date      : UTC 2022-01-14 05:12:37



悠悠MP4_MP4电影下载_麦克白的悲剧 The.Tragedy.of.Macbeth.2021.1080p.WEBRip.x265-RARBG 1.64 GB
悠悠MP4_MP4电影下载_麦克白的悲剧 The.Tragedy.of.Macbeth.2021.1080p.WEBRip.x265-RARBG 1.64 GB
悠悠MP4_MP4电影下载_麦克白的悲剧 The.Tragedy.of.Macbeth.2021.1080p.WEBRip.x265-RARBG 1.64 GB

磁力链接

magnet:?xt=urn:btih:8d5d74df293843903d28690a83e289608f889796

上传的附件:
最新回复 (0)
返回
本站所有资源均收集自互联网,没有提供影片资源存储, 也未参与录制、上传,若本站收录的资源无意侵犯了您的权益, 请联系邮箱:gogoimgs#gmail.com(#[email protected])