[2022] [欧美] [剧情] [x264-720P] 清道夫:布局 Ray.Donovan.The.Movie.2022.720p.WEB.H264-NAISU 3.28 GB

uump4 6天前 168

悠悠MP4_MP4电影下载_清道夫:布局 Ray.Donovan.The.Movie.2022.720p.WEB.H264-NAISU 3.28 GB

◎片  名 清道夫:布局 Ray Donovan / 清道夫电影版 / Ray Donovan: The Movie
◎年  代 2022
◎产  地 美国
◎类  别 剧情
◎语  言 英语
◎上映日期 2022-01-14(美国)
◎IMDb评分 
◎IMDb链接  https://www.imdb.com/title/tt14124268/
◎豆瓣评分 /10 from 0 users
◎豆瓣链接 https://movie.douban.com/subject/35376733/
◎片  长 
◎导  演 戴维·霍兰德 David Hollander
◎编  剧 戴维·霍兰德 David Hollander
       列维·施瑞博尔 Liev Schreiber
◎主  演 列维·施瑞博尔 Liev Schreiber
       凯瑞斯·多西 Kerris Dorsey
       强·沃特 Jon Voight
       凯瑞·康顿 Kerry Condon
       埃迪·马森 Eddie Marsan
       达什·米霍克 Dash Mihok
       大卫·帕特里克·凯利 David Patrick Kelly
       阿曼达·米夏卡 AJ Michalka
       雪莉·李·拉尔夫 Sheryl Lee Ralph
       普奇·豪尔 Pooch Hall
       克里斯·彼得罗夫斯基 Chris Petrovski
       克里斯托弗·格雷 Christopher Gray
       泰·亚历山大 Tye Alexander
       米克·奥罗克 Mick O'Rourke
       帕特里克·克莱因 Patrick Klein
       Daniel Hirsh Daniel Hirsh

◎标  签 

◎简  介

  #好莱坞影讯# 列维·施瑞博尔主演的Showtime剧集《清道夫》将推出电影版!施瑞博尔将回归主演,并将与剧集运作人戴维·霍兰德共同操刀剧本,霍兰德担任该片导演。强·沃特、凯瑞斯·多西也将回归出演。该片故事将承接《清道夫》第七季,米奇继续出手,雷决心在他造成更多屠杀之前找到他并阻止他。该片计划于今年晚些时候在纽约开拍。



Video
ID           : 1
Format       : AVC
Format/Info      : Advanced Video Codec
Format profile       : [email protected]
Format settings      : CABAC / 4 Ref Frames
Format settings, CABAC       : Yes
Format settings, Reference frames    : 4 frames
Codec ID         : V_MPEG4/ISO/AVC
Duration         : 1 h 39 min
Bit rate mode        : Constant
Bit rate         : 3 970 kb/s
Nominal bit rate     : 6 000 kb/s
Width        : 1 280 pixels
Height       : 720 pixels
Display aspect ratio     : 16:9
Frame rate mode      : Constant
Frame rate       : 23.976 (24000/1001) FPS
Color space      : YUV
Chroma subsampling       : 4:2:0
Bit depth        : 8 bits
Scan type        : Progressive
Bits/(Pixel*Frame)       : 0.180
Stream size      : 2.77 GiB (84%)
Default          : Yes
Forced       : No
Color range      : Limited
Color primaries      : BT.709
Transfer characteristics     : BT.709
Matrix coefficients      : BT.709

Audio
ID           : 2
Format       : E-AC-3
Format/Info      : Enhanced AC-3
Commercial name      : Dolby Digital Plus
Codec ID         : A_EAC3
Duration         : 1 h 39 min
Bit rate mode        : Constant
Bit rate         : 640 kb/s
Channel(s)       : 6 channels
Channel layout       : L R C LFE Ls Rs
Sampling rate        : 48.0 kHz
Frame rate       : 31.250 FPS (1536 SPF)
Compression mode     : Lossy
Delay relative to video      : 10 ms
Stream size      : 456 MiB (14%)
Language         : English
Service kind         : Complete Main
Default          : Yes
Forced       : No

Text
ID           : 3
Format       : UTF-8
Codec ID         : S_TEXT/UTF8
Codec ID/Info        : UTF-8 Plain Text
Title        : English
Language         : English
Default          : No
Forced       : No



Screenshots:
悠悠MP4_MP4电影下载_清道夫:布局 Ray.Donovan.The.Movie.2022.720p.WEB.H264-NAISU 3.28 GB
Ray.Donovan.The.Movie.2022.720p.WEB.H264-NAISU

Size: 3374M
Files: 11F
Date: 2022-01-14
Duration: 1 h 39 min

Source: Web
Encoding: H264
Bitrate: 4 704 kb/s
Audio Format: E-AC-3
Audio Rate: 640 kb/s
Audio Lang: English
Sub count: 1
Subtitles: English

磁力链接

magnet:?xt=urn:btih:a7100828612fdb56c8518c55f1648941e139477a

上传的附件:
最新回复 (0)
返回
本站所有资源均收集自互联网,没有提供影片资源存储, 也未参与录制、上传,若本站收录的资源无意侵犯了您的权益, 请联系邮箱:gogoimgs#gmail.com(#[email protected])