[更早] [欧美] [悬疑] [x264-720P] 大奖 The.Prize.1963.iNTERNAL.720p.BluRay.x264-YAMG 7.23 GB

uump4 7天前 205

悠悠MP4_MP4电影下载_大奖 The.Prize.1963.iNTERNAL.720p.BluRay.x264-YAMG 7.23 GB

◎片  名 大奖 The Prize / 奖 / 谍海惊心
◎年  代 1963
◎产  地 美国
◎类  别 剧情 / 悬疑 / 惊悚 / 犯罪
◎语  言 英语 / 法语 / 德语 / 瑞典语
◎上映日期 1963-12-25
◎IMDb评分  6.8/10 from 4643 users
◎IMDb链接  https://www.imdb.com/title/tt0057426/
◎豆瓣评分 7.8/10 from 271 users
◎豆瓣链接 https://movie.douban.com/subject/1305844/
◎片  长 134 分钟
◎导  演 马克·罗布森 Mark Robson
◎编  剧 恩斯特·莱赫曼 Ernest Lehman
       欧文·华莱士 Irving Wallace
◎主  演 保罗·纽曼 Paul Newman
       艾尔克·萨默 Elke Sommer
       黛安·贝克 Diane Baker
       爱德华·罗宾逊 Edward G. Robinson
       希德·雷蒙德 Sid Raymond
       格雷格·帕尔默 Gregg Palmer
       Sigfrid Tor Sigfrid Tor
       Michael Panaieff Michael Panaieff
       Ron Nyman Ron Nyman
       格拉齐亚·纳西索罗德 Grazia Narciso
       拉尔斯·帕斯高 Lars Passgård
       米切林内·普雷斯利 Micheline Presle
       奎妮·伦纳德 Queenie Leonard
       莱斯特·马修斯 Lester Matthews
       Colin Kenny Colin Kenny
       Mauritz Hugo Mauritz Hugo
       岛田 Teru Shimada
       约翰奎尔伦 John Qualen
       Ned Wever Ned Wever
       本·怀特 Ben Wright
       约翰·文格拉夫 John Wengraf
       弗雷德·谢威勒 Fred Scheiwiller
       Ivan Triesault Ivan Triesault
       卡尔·斯温森 Karl Swenson
       伯特史蒂文斯 Bert Stevens
       Hal Taggart Hal Taggart
       Arthur Tovey Arthur Tovey
       Otto Reichow Otto Reichow
       杰弗里·塞尔 Jeffrey Sayre
       Gene Roth Gene Roth
       Fred Holliday Fred Holliday
       山姆·哈里斯 Sam Harris
       Sven Hugo Borg Sven Hugo Borg
       马蒂娜·巴特利特 Martine Bartlett
       Peter Bourne Peter Bourne
       Jacqueline Beer Jacqueline Beer
       约翰·班纳 John Banner
       鲁道夫·安德斯 Rudolph Anders
       Robin Adare Robin Adare
       里奥.G.卡罗尔 Leo G. Carroll
       热拉尔·乌里 Gérard Oury
       萨夏·皮托埃夫 Sacha Pitoëff
       布里特·艾克拉诺 Britt Ekland
       安娜·李 Anna Lee
       Jack Chefe Jack Chefe
       Albert Carrier Albert Carrier
       约翰·霍兰 John Holland
       格雷戈里·盖伊 Gregory Gaye
       斯图尔特·霍姆斯 Stuart Holmes
       Alice Frost Alice Frost
       伊迪丝·埃文森 Edith Evanson
       Sayre Dearing Sayre Dearing
       Noel Drayton Noel Drayton
       唐多宾斯 Don Dubbins
       赛尔乔·凡托尼 Sergio Fantoni
       Sam Edwards Sam Edwards
       Jerry Dunphy Jerry Dunphy
       Martin Brandt Martin Brandt
       Carol Byron Carol Byron
       彼得·科埃 Peter Coe
       弗吉尼亚克里斯汀 Virginia Christine
       凯文·麦卡锡 Kevin McCarthy

◎标  签 

◎简  介

  今年的诺贝尔文学奖即将颁奖,所有人的目光都聚集在了那些有可能获奖的作家们身上。让大家都没有想到的是,最终的大奖落在了一个名叫安德鲁(保罗·纽曼 Paul Newman 饰)的年轻人头上,这个看上去就不太靠谱的作家似乎将更多的热情放在了女人和酒身上,而并没有放在文学创作上。                                    
      安德森小姐(艾尔克·萨默 Elke Sommer 饰)成为了安德鲁的朱莉,将打理他在颁奖典礼上的一切大小事务,美丽的安德森很快就吸引了安德鲁的注意。和安德鲁一起领奖的还有一个名叫马克思(爱德华·罗宾逊 Edward G. Robinson 饰)的男人,他带着他可爱的侄女艾米丽(黛安·贝克 Diane Baker 饰)一同前往瑞典。

◎获奖情况

  第21届金球奖 (1964)
  电影类 最佳女配角(提名)
  黛安·贝克电影类 年度女新星
  艾尔克·萨默



Video
ID           : 1
Format       : AVC
Format/Info      : Advanced Video Codec
Format profile       : [email protected]
Format settings      : CABAC / 12 Ref Frames
Format settings, CABAC       : Yes
Format settings, Reference frames    : 12 frames
Codec ID         : V_MPEG4/ISO/AVC
Duration         : 2 h 15 min
Bit rate         : 6 705 kb/s
Width        : 1 280 pixels
Height       : 544 pixels
Display aspect ratio     : 2.35:1
Frame rate mode      : Constant
Frame rate       : 23.976 (24000/1001) FPS
Color space      : YUV
Chroma subsampling       : 4:2:0
Bit depth        : 8 bits
Scan type        : Progressive
Bits/(Pixel*Frame)       : 0.402
Stream size      : 6.32 GiB (87%)
Writing library      : x264 core 164 r3075 66a5bc1
Encoding settings        : cabac=1 / ref=12 / deblock=1:-3:-3 / analyse=0x3:0x133 / me=umh / subme=10 / psy=1 / psy_rd=1.00:0.00 / mixed_ref=1 / me_range=32 / chroma_me=1 / trellis=2 / 8x8dct=1 / cqm=0 / deadzone=21,11 / fast_pskip=0 / chroma_qp_offset=-2 / threads=17 / lookahead_threads=2 / sliced_threads=0 / nr=0 / decimate=0 / interlaced=0 / bluray_compat=0 / constrained_intra=0 / bframes=8 / b_pyramid=2 / b_adapt=2 / b_bias=0 / direct=3 / weightb=1 / open_gop=0 / weightp=2 / keyint=250 / keyint_min=23 / scenecut=40 / intra_refresh=0 / rc=crf / mbtree=0 / crf=17.0 / qcomp=0.60 / qpmin=0 / qpmax=69 / qpstep=4 / ip_ratio=1.40 / pb_ratio=1.30 / aq=3:0.60
Language         : English
Default          : Yes
Forced       : No
Color range      : Limited
Matrix coefficients      : BT.709

Audio
ID           : 2
Format       : FLAC
Format/Info      : Free Lossless Audio Codec
Codec ID         : A_FLAC
Duration         : 2 h 15 min
Bit rate mode        : Variable
Bit rate         : 902 kb/s
Channel(s)       : 2 channels
Channel layout       : L R
Sampling rate        : 48.0 kHz
Frame rate       : 11.719 FPS (4096 SPF)
Bit depth        : 24 bits
Compression mode     : Lossless
Stream size      : 871 MiB (12%)
Title        : English
Writing library      : libFLAC 1.3.3 (UTC 2019-08-04)
Language         : English
Default          : Yes
Forced       : No

Text #1
ID           : 3
Format       : UTF-8
Codec ID         : S_TEXT/UTF8
Codec ID/Info        : UTF-8 Plain Text
Duration         : 2 h 13 min
Bit rate         : 66 b/s
Count of elements        : 2143
Stream size      : 65.5 KiB (0%)
Title        : English
Language         : English
Default          : No
Forced       : No

Text #2
ID           : 4
Format       : UTF-8
Codec ID         : S_TEXT/UTF8
Codec ID/Info        : UTF-8 Plain Text
Duration         : 2 h 13 min
Bit rate         : 69 b/s
Count of elements        : 2271
Stream size      : 67.8 KiB (0%)
Title        : English SDH
Language         : English
Default          : No
Forced       : No

Text #3
ID           : 5
Format       : PGS
Muxing mode      : zlib
Codec ID         : S_HDMV/PGS
Codec ID/Info        : Picture based subtitle format used on BDs/HD-DVDs
Duration         : 2 h 13 min
Bit rate         : 95.6 kb/s
Count of elements        : 4542
Stream size      : 91.7 MiB (1%)
Title        : English SDH PGS
Language         : English
Default          : No
Forced       : No

Menu
00:00:00.000         : en:Chapter 01
00:03:48.645         : en:Chapter 02
00:07:27.155         : en:Chapter 03
00:10:10.527         : en:Chapter 04
00:13:09.580         : en:Chapter 05
00:17:31.217         : en:Chapter 06
00:21:45.221         : en:Chapter 07
00:25:12.886         : en:Chapter 08
00:30:10.267         : en:Chapter 09
00:33:02.355         : en:Chapter 10
00:37:03.138         : en:Chapter 11
00:40:21.502         : en:Chapter 12
00:45:21.260         : en:Chapter 13
00:48:28.948         : en:Chapter 14
00:53:19.863         : en:Chapter 15
00:59:23.685         : en:Chapter 16
01:05:24.754         : en:Chapter 17
01:09:09.896         : en:Chapter 18
01:13:21.230         : en:Chapter 19
01:17:48.789         : en:Chapter 20
01:23:09.443         : en:Chapter 21
01:27:35.750         : en:Chapter 22
01:32:09.357         : en:Chapter 23
01:36:52.640         : en:Chapter 24
01:42:45.993         : en:Chapter 25
01:47:05.377         : en:Chapter 26
01:51:50.579         : en:Chapter 27
01:55:37.264         : en:Chapter 28
02:01:35.038         : en:Chapter 29
02:05:54.338         : en:Chapter 30
02:10:17.727         : en:Chapter 31
02:12:50.421         : en:Chapter 32
02:14:48.747         : en:Chapter 33



Screenshots:
悠悠MP4_MP4电影下载_大奖 The.Prize.1963.iNTERNAL.720p.BluRay.x264-YAMG 7.23 GB
Yet
Another
Movie
Group

The.Prize.1963.iNTERNAAL.720p.BluRay.x264-YAMG

Duration: 2 h 15 min
Resolution: 1280x544
Video_Bitrate: 6573 Kbps
FPS: 23.976
CRF: 17
Audio_Language: English
Audio_Codec: FLAC
Audio_Bitrate: 902 Kbps
Audio_Channels: 2
Subtitles: English/SDH
Total_Size: 7406.59 MiB
Source_Bitrate: 34991 Kbps

https://www.imdb.com/title/tt0057426
As the Nobel Prize winners come to Stockholm to
receive their awards, their lives are overturned
and perturbed in various ways.

磁力链接

magnet:?xt=urn:btih:153384199566c72e2118a0fca3d261e5e2879b46

上传的附件:
最新回复 (0)
返回
本站所有资源均收集自互联网,没有提供影片资源存储, 也未参与录制、上传,若本站收录的资源无意侵犯了您的权益, 请联系邮箱:gogoimgs#gmail.com(#[email protected])