[2017] [欧美] [恐怖] [x264-720P] 诡怪疑云 Terrified.2017.720p.BluRay.x264-PEGASUS 4.37 GB

uump4 7天前 265

◎片  名 诡怪疑云 Aterrados / 惊魂未定 / Terrified
◎年  代 2017
◎产  地 阿根廷
◎类  别 恐怖
◎语  言 西班牙语
◎上映日期 2017-10-27(莫比多影展) / 2018-05-03(阿根廷)
◎IMDb评分  6.5/10 from 14362 users
◎IMDb链接  https://www.imdb.com/title/tt7549892/
◎豆瓣评分 6.7/10 from 21501 users
◎豆瓣链接 https://movie.douban.com/subject/27188152/
◎片  长 87分钟
◎导  演 德米安·鲁格纳 Demián Rugna
◎编  剧 德米安·鲁格纳 Demián Rugna
◎主  演 阿里埃尔·查瓦里亚 Ariel Chavarría
       马克西米利亚诺·吉安尼 Maximiliano Ghione
       诺贝托·冈萨罗 Norberto Gonzalo

◎标  签 

◎简  介

  阿根廷恐怖片。布宜诺斯艾利斯的一个社区发生了离奇事件,一名专研超自然的博士和她的同事以及一名警官决定深入调查。

◎获奖情况

  第5届豆瓣电影年度榜单 (2018)
  评分最高的恐怖/惊悚片(提名)



Video
ID           : 1
Format       : AVC
Format/Info      : Advanced Video Codec
Format profile       : [email protected]
Format settings      : CABAC / 12 Ref Frames
Format settings, CABAC       : Yes
Format settings, Reference frames    : 12 frames
Codec ID         : V_MPEG4/ISO/AVC
Duration         : 1 h 27 min
Bit rate         : 6 234 kb/s
Width        : 1 280 pixels
Height       : 534 pixels
Display aspect ratio     : 2.40:1
Frame rate mode      : Constant
Frame rate       : 23.976 (24000/1001) FPS
Color space      : YUV
Chroma subsampling       : 4:2:0
Bit depth        : 8 bits
Scan type        : Progressive
Bits/(Pixel*Frame)       : 0.380
Stream size      : 3.83 GiB (88%)
Writing library      : x264 core 164 r3081 19856cc
Encoding settings        : cabac=1 / ref=12 / deblock=1:-3:-3 / analyse=0x3:0x133 / me=umh / subme=11 / psy=1 / psy_rd=1.02:0.00 / mixed_ref=1 / me_range=32 / chroma_me=1 / trellis=2 / 8x8dct=1 / cqm=0 / deadzone=21,11 / fast_pskip=0 / chroma_qp_offset=-2 / threads=17 / lookahead_threads=4 / sliced_threads=0 / nr=0 / decimate=0 / interlaced=0 / bluray_compat=0 / constrained_intra=0 / bframes=16 / b_pyramid=2 / b_adapt=2 / b_bias=0 / direct=3 / weightb=1 / open_gop=0 / weightp=2 / keyint=250 / keyint_min=23 / scenecut=40 / intra_refresh=0 / rc_lookahead=250 / rc=crf / mbtree=0 / crf=17.2 / qcomp=0.60 / qpmin=0 / qpmax=69 / qpstep=4 / vbv_maxrate=62500 / vbv_bufsize=78125 / crf_max=0.0 / nal_hrd=none / filler=0 / ip_ratio=1.30 / pb_ratio=1.20 / aq=3:0.80
Default          : Yes
Forced       : No
Color range      : Limited
Color primaries      : BT.709
Matrix coefficients      : BT.709

Audio #1
ID           : 2
Format       : FLAC
Format/Info      : Free Lossless Audio Codec
Codec ID         : A_FLAC
Duration         : 1 h 28 min
Bit rate mode        : Variable
Bit rate         : 406 kb/s
Channel(s)       : 2 channels
Channel layout       : L R
Sampling rate        : 48.0 kHz
Frame rate       : 11.719 FPS (4096 SPF)
Bit depth        : 16 bits
Compression mode     : Lossless
Stream size      : 256 MiB (6%)
Writing library      : libFLAC 1.2.1 (UTC 2007-09-17)
Language         : Spanish
Default          : Yes
Forced       : No

Audio #2
ID           : 3
Format       : FLAC
Format/Info      : Free Lossless Audio Codec
Codec ID         : A_FLAC
Duration         : 1 h 28 min
Bit rate mode        : Variable
Bit rate         : 449 kb/s
Channel(s)       : 2 channels
Channel layout       : L R
Sampling rate        : 48.0 kHz
Frame rate       : 11.719 FPS (4096 SPF)
Bit depth        : 16 bits
Compression mode     : Lossless
Stream size      : 283 MiB (6%)
Title        : English Dub
Writing library      : libFLAC 1.2.1 (UTC 2007-09-17)
Language         : English
Default          : No
Forced       : No

Text #1
ID           : 4
Format       : UTF-8
Codec ID         : S_TEXT/UTF8
Codec ID/Info        : UTF-8 Plain Text
Duration         : 1 h 23 min
Bit rate         : 44 b/s
Count of elements        : 972
Stream size      : 27.4 KiB (0%)
Title        : SDH
Language         : English
Default          : Yes
Forced       : Yes

Text #2
ID           : 5
Format       : PGS
Muxing mode      : zlib
Codec ID         : S_HDMV/PGS
Codec ID/Info        : Picture based subtitle format used on BDs/HD-DVDs
Duration         : 1 h 23 min
Bit rate         : 33.8 kb/s
Count of elements        : 1944
Stream size      : 20.1 MiB (0%)
Title        : SDH
Language         : English
Default          : No
Forced       : No

Text #3
ID           : 6
Format       : PGS
Muxing mode      : zlib
Codec ID         : S_HDMV/PGS
Codec ID/Info        : Picture based subtitle format used on BDs/HD-DVDs
Duration         : 1 h 22 min
Bit rate         : 28.1 kb/s
Count of elements        : 1572
Stream size      : 16.7 MiB (0%)
Language         : French
Default          : No
Forced       : No

Menu
00:00:00.000         : :Chapter 01
00:10:12.028         : :Chapter 02
00:20:37.278         : :Chapter 03
00:32:44.212         : :Chapter 04
00:41:03.419         : :Chapter 05
00:50:34.156         : :Chapter 06
01:01:24.222         : :Chapter 07
01:08:11.879         : :Chapter 08
01:21:13.368         : :Chapter 09



Screenshots:
悠悠MP4_MP4电影下载_诡怪疑云 Terrified.2017.720p.BluRay.x264-PEGASUS 4.37 GB
_                                                                              ]Mql
/*d ^\"._
;-.                                  .-,-  ,x*\'    q_
. ^_    -.                         _!  _6      *._*/^
_^x  ^*.                     ,^   F        T \'
]\"-.   *,   \"-^m_   ^-._              *C,/   f       _   ^,
\',  *, _  ,  \"= ._  = ,_          f   ]    I          g
*q    \"*.*_^-.     \'*-* .CZMmpw,      ,]    ]q          M,
,_   \"w_.  *Qbg_^-._           q ! :gcJ]f    f M0MNq_ *m   $
( ^= _ *a_   _  \"*w_MC     ] I/\"7_         f   M  )Mgp\'
\"v    *+JM*q_+w_    _#*\"*, ,    tf , J         f    &,hf
*m,_ = , MNmg_^*#^  ==e4--    Lb  !         f
. Mmq,_\" - ._\"**  S_ =*&    *mm0a,     _   4  _,,
.  \"\"-=JZM0Mpgg,,__ -p^ [email protected]&,        Y      \"q_gJ#g
\',_   +- ,___^&_   J  \"kmu         _,a*    -CMq
**mqag,,___^_\"\"*y-\"9^  -]    ]    /       _a_ ^Mm,
^S  5_gu*a    \'          _N   \"*g_ \"m,
,pmmme=\"_,w\"                _F  _   Nq   f
m^        \"                    #  dM&q_ M- 4
[email protected]\"*g,_$                    _,        ,QL*      q#   b
# g0                  [email protected]^       p\'          0N_  t
I \'_*#p8                 *         _p             # Mg]
#  I]\']6 :                      _,m\'              4_   l
]  !4 ]f S         ]    _,p,,[email protected]                  *._j
f ] ]f +          & p\"
m_    _J   ] ]1  *         0f#
!**\"^    ]  #,           # 2
#mu,__,,b -   _\'  f   Mq         j\'_
g          _r ,(      *m_    ,Y A
&      / M*\"_\'          ]   j! d
m,_,\'     /            ]   \' F
_p*   _,*^             f   &_&
M**M               ]     0q,
]maq__    M&*q
\"*q_   _*Pu
\"pFMc
#    ^q
4__   L*

Terrified.2017.720p.BluRay.x264-PEGASUS

Genre: Horror
Release Date: 1.2022
Runtime: 87  Min
iMDB: https://www.imdb.com/title/tt7549892/
iMDB Rating: 6.5
Video: 1280x534p, 6234 kbps, CRF 17.2
Audio: Spanish FLAC 2.0
English FLAC 2.0
Source: 26004 kbps
Subtitles: English, French

f

_  ^        ^      m                           _                 ,
\'    ___   ^  \'   __                                      __          ___    ^

_ mg             _                                _           ^       f
^                                                        f
1     _   _    m                       m _   _   \'
.       \"\" �  _               \" _   ^ \'  \'
_   , _ _ _ ___,____ /^  _-  _/    ^
^\" \'_      r    \'     g      _\" \"
^

磁力链接

magnet:?xt=urn:btih:802710fe93f9cc047eb4d79bd18fade433b50659

上传的附件:
最新回复 (0)
返回
本站所有资源均收集自互联网,没有提供影片资源存储, 也未参与录制、上传,若本站收录的资源无意侵犯了您的权益, 请联系邮箱:gogoimgs#gmail.com(#[email protected])