[更早] [欧美] [奇幻] [x264-720P] 魔幻铁路历险记 Thomas.and.the.Magic.Railroad.2000.720p.BluRay.x264-YAMG 4.60 GB

uump4 7天前 192

悠悠MP4_MP4电影下载_魔幻铁路历险记 Thomas.and.the.Magic.Railroad.2000.720p.BluRay.x264-YAMG 4.60 GB

◎片  名 魔幻铁路历险记 Thomas and the Magic Railroad / 托马斯小火车电影版
◎年  代 2000
◎产  地 英国 / 美国
◎类  别 家庭 / 奇幻
◎语  言 英语
◎上映日期 2000-07-14
◎IMDb评分  4.2/10 from 4242 users
◎IMDb链接  https://www.imdb.com/title/tt0205461/
◎豆瓣评分 /10 from 0 users
◎豆瓣链接 https://movie.douban.com/subject/2242144/
◎片  长 85 分钟
◎导  演 布瑞特·奥克罗夫特 Britt Allcroft
◎编  剧 布瑞特·奥克罗夫特 Britt Allcroft
       雷夫·W·奥德里 Rev. W. Awdry
◎主  演 玛拉·威尔逊 Mara Wilson
       亚历克·鲍德温 Alec Baldwin
       彼得·方达 Peter Fonda
       拉塞尔·敏斯 Russell Means
       科鲁姆·费奥瑞 Colm Feore
       Robert Black Robert Black
       布瑞特·奥克罗夫特 Britt Allcroft
       科迪·麦克马斯 Cody McMains
       Kevin Frank Kevin Frank
       Didi Conn Didi Conn
       苏珊·罗曼 Susan Roman
       Michael E. Rodgers Michael E. Rodgers
       罗伯特·丁克勒 Robert Tinkler
       尼尔·克容 Neil Crone
       Robbie Bugbee Robbie Bugbee
       罗莉·哈利尔 Lori Hallier

◎标  签 

◎简  介

  《魔幻铁路历险记》由最受孩子们欢迎的电视连续剧《火车头托马斯和他的朋友们》改编而成。该片秉承了原片无与伦比的魔法魅力,而且首次采用宽荧幕的形式向观众展示这种"半真人演绎半动画制作"的新派电影。  11岁的Lily(由Mara Wilson扮演)坐火车去她爷爷家玩。她爷爷(由Peter Fonda扮演)年轻时可是一名快乐的铁路工程师,但是现在过着孤独的生活。没想到Lily坐错了火车,最后在一个景色优美的小镇下了车。那个小镇名为" 美丽时光", 在那里Lily遇上了一位会使魔法的列车长(由Alec Baldwin扮演),跟着他又上了火车,沿着"魔幻铁路"开始去苏达岛的探险之旅。要知道苏达岛可是一个玩具王国,可爱的Thomas(迷你型蓝色蒸气车头玩具)就住在那,但是现在这个"世外桃源"正在受到贪婪和愚昧的侵蚀。于是Lily 和Thomas联手,在小狗Mutt、小男孩Patch等其他许多好朋友们的帮助下,共同惩治坏蛋,最终使故事有了一个圆满的结尾。



Video
ID           : 1
Format       : AVC
Format/Info      : Advanced Video Codec
Format profile       : [email protected]
Format settings      : CABAC / 9 Ref Frames
Format settings, CABAC       : Yes
Format settings, Reference frames    : 9 frames
Codec ID         : V_MPEG4/ISO/AVC
Duration         : 1 h 25 min
Bit rate         : 5 340 kb/s
Width        : 1 280 pixels
Height       : 692 pixels
Display aspect ratio     : 1.85:1
Frame rate mode      : Constant
Frame rate       : 23.976 (24000/1001) FPS
Color space      : YUV
Chroma subsampling       : 4:2:0
Bit depth        : 8 bits
Scan type        : Progressive
Bits/(Pixel*Frame)       : 0.251
Stream size      : 3.20 GiB (70%)
Writing library      : x264 core 164 r3075 66a5bc1
Encoding settings        : cabac=1 / ref=9 / deblock=1:-3:-3 / analyse=0x3:0x133 / me=umh / subme=10 / psy=1 / psy_rd=1.00:0.00 / mixed_ref=1 / me_range=32 / chroma_me=1 / trellis=2 / 8x8dct=1 / cqm=0 / deadzone=21,11 / fast_pskip=0 / chroma_qp_offset=-2 / threads=22 / lookahead_threads=3 / sliced_threads=0 / nr=0 / decimate=0 / interlaced=0 / bluray_compat=0 / constrained_intra=0 / bframes=8 / b_pyramid=2 / b_adapt=2 / b_bias=0 / direct=3 / weightb=1 / open_gop=0 / weightp=2 / keyint=250 / keyint_min=23 / scenecut=40 / intra_refresh=0 / rc=crf / mbtree=0 / crf=17.0 / qcomp=0.60 / qpmin=0 / qpmax=69 / qpstep=4 / ip_ratio=1.40 / pb_ratio=1.30 / aq=3:0.60
Language         : English
Default          : Yes
Forced       : No
Color range      : Limited
Matrix coefficients      : BT.709

Audio
ID           : 2
Format       : DTS XLL
Format/Info      : Digital Theater Systems
Commercial name      : DTS-HD Master Audio
Codec ID         : A_DTS
Duration         : 1 h 25 min
Bit rate mode        : Variable
Bit rate         : 2 303 kb/s
Channel(s)       : 6 channels
Channel layout       : C L R Ls Rs LFE
Sampling rate        : 48.0 kHz
Frame rate       : 93.750 FPS (512 SPF)
Bit depth        : 24 bits
Compression mode     : Lossless
Stream size      : 1.38 GiB (30%)
Title        : English
Language         : English
Default          : Yes
Forced       : No

Text #1
ID           : 3
Format       : UTF-8
Codec ID         : S_TEXT/UTF8
Codec ID/Info        : UTF-8 Plain Text
Duration         : 1 h 24 min
Bit rate         : 63 b/s
Count of elements        : 1256
Stream size      : 39.3 KiB (0%)
Title        : English
Language         : English
Default          : No
Forced       : No

Text #2
ID           : 4
Format       : UTF-8
Codec ID         : S_TEXT/UTF8
Codec ID/Info        : UTF-8 Plain Text
Duration         : 1 h 25 min
Bit rate         : 69 b/s
Count of elements        : 1370
Stream size      : 43.4 KiB (0%)
Title        : English SDH
Language         : English
Default          : No
Forced       : No

Text #3
ID           : 5
Format       : PGS
Muxing mode      : zlib
Codec ID         : S_HDMV/PGS
Codec ID/Info        : Picture based subtitle format used on BDs/HD-DVDs
Duration         : 1 h 25 min
Bit rate         : 38.5 kb/s
Count of elements        : 1910
Stream size      : 23.6 MiB (1%)
Title        : English SDH PGS
Language         : English
Default          : No
Forced       : No

Menu
00:00:00.000         : en:Chapter 01
00:08:49.571         : en:Chapter 02
00:16:19.770         : en:Chapter 03
00:22:11.163         : en:Chapter 04
00:26:46.271         : en:Chapter 05
00:29:04.534         : en:Chapter 06
00:32:22.524         : en:Chapter 07
00:39:31.828         : en:Chapter 08
00:43:13.549         : en:Chapter 09
00:47:13.247         : en:Chapter 10
00:51:37.094         : en:Chapter 11
00:56:26.800         : en:Chapter 12
01:01:48.538         : en:Chapter 13
01:07:59.450         : en:Chapter 14
01:12:48.197         : en:Chapter 15
01:15:13.008         : en:Chapter 16



Screenshots:
悠悠MP4_MP4电影下载_魔幻铁路历险记 Thomas.and.the.Magic.Railroad.2000.720p.BluRay.x264-YAMG 4.60 GB
Yet
Another
Movie
Group

Thomas.and.the.Magic.Railroad.2000.720p.BluRay.x264-YAMG

Duration: 1 h 25 min
Resolution: 1280x692
Video_Bitrate: 5235 Kbps
FPS: 23.976
CRF: 17
Audio_Language: English
Audio_Codec: AC-3
Audio_Bitrate: 640 Kbps
Audio_Channels: 6
Subtitles: English/SDH
Total_Size: 4711.29 MiB
Source_Bitrate: 27994 Kbps

https://www.imdb.com/title/tt0205461
Thomas the Tank Engine\'s feature film debut follows Thomas and
Mr. Conductor as they cross between the real world and the fictional
Island of Sodor, in an attempt to recover lost gold dust.

磁力链接

magnet:?xt=urn:btih:0f885f98ac287fcadf1a5f10df419c6fa5571c32

上传的附件:
最新回复 (0)
返回
本站所有资源均收集自互联网,没有提供影片资源存储, 也未参与录制、上传,若本站收录的资源无意侵犯了您的权益, 请联系邮箱:gogoimgs#gmail.com(#[email protected])